<?xml version="1.0" standalone="no"?>
<!DOCTYPE svg PUBLIC "-//W3C//DTD SVG 1.1//EN" "http://www.w3.org/Graphics/SVG/1.1/DTD/svg11.dtd" >
<svg xmlns="http://www.w3.org/2000/svg">
<metadata>
This is a custom SVG webfont generated by Font Squirrel.
Copyright   : Copyright c 2010 Friedrich Althausen httpfriedrichalthausende All rights reservedThis Font Software is licensed under the SIL Open Font License Version 11This license is available with a FAQ at httpscriptssilorgOFL
Designer    : Friedrich Althausen
Foundry     : Friedrich Althausen
Foundry URL : httpfriedrichalthausende
</metadata>
<defs>
<font id="webfontJOWxQLX2" horiz-adv-x="1105" >
<font-face units-per-em="2048" ascent="1536" descent="-512" />
<missing-glyph horiz-adv-x="409" />
<glyph unicode=" "  horiz-adv-x="409" />
<glyph unicode="&#x09;" horiz-adv-x="409" />
<glyph unicode="&#xa0;" horiz-adv-x="409" />
<glyph unicode="!" horiz-adv-x="841" d="M297 1395q20 4 49 12l58 17q30 9 56.5 18.5t43.5 19.5q43 -14 37 -63q-10 -96 -20.5 -211t-19.5 -238l-17.5 -247.5t-12.5 -241.5q-25 0 -49.5 2t-42.5 10q-8 143 -17.5 266l-18.5 233.5t-20.5 214.5t-25.5 208zM307 92q0 47 35 82t90 35q53 0 83 -36t30 -71 q0 -61 -37 -89.5t-84 -28.5q-55 0 -86 30.5t-31 77.5z" />
<glyph unicode="&#x22;" horiz-adv-x="702" d="M123 1419q29 4 61.5 15.5t53.5 27.5q47 -10 41 -67q-2 -6 -2.5 -13.5t-2.5 -15.5q-10 -82 -16 -175t-16 -210q-20 0 -45 4t-35 14q-4 106 -13.5 213t-25.5 207zM422 1419q29 4 61.5 16.5t55.5 26.5q41 -10 41 -55v-12q-10 -88 -19 -187l-18 -229q-23 0 -48.5 4t-35.5 14 q-4 106 -12.5 214t-24.5 208z" />
<glyph unicode="#" horiz-adv-x="1234" d="M111 434q0 51 24 105h232l77 366h-59q-86 0 -166 -2q0 23 5 50.5t20 54.5h221l98 454q29 -4 50.5 -13t37.5 -32l-88 -409h330l96 454q61 -12 88 -41l-88 -413h211q0 -31 -4 -52.5t-20 -48.5h-207l-78 -368h223q0 -31 -4 -51.5t-20 -49.5h-220l-96 -454q-39 6 -56.5 17 t-33.5 28l86 409q-111 0 -197 -2h-131l-94 -452q-63 8 -88 53l84 399q-88 0 -143 -2h-90zM465 539h328l77 368h-327z" />
<glyph unicode="$" horiz-adv-x="1118" d="M139 113q12 78 15.5 155.5t3.5 134.5q23 6 53.5 9.5t56.5 3.5q4 -78 20.5 -139.5t50.5 -105.5t89 -69q35 -14 80 -20v526q-12 6 -25 10q-82 39 -152.5 91.5t-117.5 130.5t-47 202q0 80 27.5 146.5t76.5 115t117 72.5q55 20 121 25v123q31 0 51.5 -4t42.5 -19 q0 -41 -2 -100q78 -6 137 -27q82 -27 125 -61q0 -59 2 -137t10 -134q-23 -10 -54.5 -14t-59.5 -4q-16 88 -37 144.5t-48.5 88t-62.5 43.5q-6 2 -14 5v-502l61 -31q82 -39 153 -91t118 -126t47 -186q0 -78 -32 -148.5t-87 -124t-131 -84.5q-59 -23 -127 -28q2 -96 2 -170 q-23 0 -51.5 6t-42.5 16v148q-39 2 -74 6q-53 6 -99 21.5t-92.5 40t-103.5 61.5zM342 1108q0 -90 47 -147t117 -103l2 -2v455q-70 -8 -113 -51q-53 -54 -53 -152zM598 80q41 4 74 16q43 18 71.5 47t44 67t15.5 81q0 92 -47 149.5t-119 98.5q-18 12 -39 22v-481z" />
<glyph unicode="%" horiz-adv-x="1708" d="M184 1049q0 66 21.5 127t64.5 108t106.5 74.5t147.5 27.5q74 0 130.5 -27.5t94 -71.5t57 -99t19.5 -111q0 -70 -21.5 -131t-62.5 -108t-100 -75t-137 -28q-80 0 -140.5 26.5t-100.5 72t-59.5 101t-19.5 114.5zM283 61l1132 1344q29 -6 48.5 -21.5t37.5 -37.5l-1145 -1360 q-29 16 -48 35.5t-25 39.5zM342 1075q0 -111 47 -182.5t131 -71.5q25 0 51.5 14.5t48 43t36 70.5t14.5 100q0 111 -48.5 181t-123.5 70q-66 0 -111 -63.5t-45 -161.5zM938 297q0 68 21.5 129t64.5 108.5t107.5 75t150.5 27.5q76 0 132 -27.5t94 -71.5t57.5 -100.5 t19.5 -111.5q0 -70 -21.5 -132.5t-63.5 -109.5t-102.5 -74.5t-137.5 -27.5q-80 0 -140.5 26.5t-100.5 71.5t-60.5 101.5t-20.5 115.5zM1106 324q0 -111 45 -183.5t127 -72.5q25 0 49.5 14t45 43t33.5 72t13 100q0 111 -46 182.5t-120 71.5q-31 0 -57.5 -17.5t-47 -48 t-31.5 -71.5t-11 -90z" />
<glyph unicode="&#x26;" horiz-adv-x="1519" d="M111 426q0 78 23.5 145.5t63.5 125t95 104.5q39 33 80 61l-17 29q-31 66 -48 132.5t-17 139.5q0 57 22.5 112.5t65.5 98.5t105.5 68.5t142.5 25.5q88 0 150.5 -17t127.5 -54q-8 -53 -11 -115.5t1 -124.5q-25 -10 -54.5 -13t-54.5 -3q-8 131 -48 184t-124 53 q-72 0 -116.5 -46t-44.5 -130q0 -45 8 -86t29.5 -86t58.5 -100.5t96 -128.5l74 -90l101 -118l145 -163q14 -14 26 -29q51 80 80 144q33 72 49 139q20 80 -13.5 116t-139.5 58q-6 20 -10.5 43t-4.5 43q43 -4 100.5 -5t108.5 -1t110.5 1t94.5 5q0 -18 -2 -41.5t-6 -42.5 q-63 -23 -92 -59.5t-49 -108.5q-27 -92 -68 -182q-35 -78 -92 -180l114 -121q25 -27 48.5 -44.5t49 -27.5t58.5 -16t80 -8q0 -20 -2 -45t-10 -48q-29 0 -70 -3t-84 -8t-82 -12t-63 -15q-68 90 -138 172q-12 12 -24 26q-82 -100 -168 -147q-96 -53 -217 -53q-123 0 -207 39.5 t-135 104t-73.5 144.5t-22.5 158zM283 485q0 -86 23.5 -150.5t63.5 -108.5t93 -66.5t112 -22.5q92 0 166 33q61 29 125 88q-23 29 -47 55l-137 157l-139 159q-59 70 -107 133l-24 33q-47 -51 -84 -115q-45 -80 -45 -195z" />
<glyph unicode="'" horiz-adv-x="405" d="M123 1419q29 4 61.5 16.5t55.5 26.5q39 -6 43 -49v-18q-12 -90 -20 -187l-17 -231q-23 0 -47.5 5t-34.5 15q-4 109 -14.5 214.5t-26.5 207.5z" />
<glyph unicode="(" horiz-adv-x="595" d="M72 492q0 133 20.5 256.5t65.5 247.5t114.5 252t167.5 270q27 4 41.5 -3.5t30.5 -21.5q-72 -109 -123 -220.5t-83 -233t-46 -257t-14 -290.5q0 -160 16.5 -298.5t50 -264.5t86 -242.5t125.5 -231.5q-14 -10 -34.5 -12t-38.5 2q-180 240 -279.5 494t-99.5 553z" />
<glyph unicode=")" horiz-adv-x="595" d="M72 -545q74 115 126 231.5t85.5 242.5t50 264.5t16.5 298.5q0 156 -14 291t-46 256.5t-83 233t-123 220.5q14 12 30.5 19.5t41.5 5.5q98 -141 167.5 -269.5t114.5 -252.5t65.5 -247.5t20.5 -256.5q0 -299 -99 -553t-280 -494q-16 -4 -37.5 -2t-35.5 12z" />
<glyph unicode="*" horiz-adv-x="907" d="M123 1159q6 29 22.5 63.5t44.5 55.5q47 -41 109 -88l121 -92q10 74 15 141.5t9 146.5q29 4 69 -2t69 -24q-27 -59 -54 -132l-51 -145q74 12 141.5 27.5t145.5 38.5q12 -27 17 -66t-1 -71q-66 4 -143.5 7t-153.5 5q35 -68 71 -126l79 -126q-25 -23 -54.5 -37t-70.5 -18 q-14 61 -36 135l-44 145q-53 -53 -97 -104l-93 -113q-27 14 -54.5 42t-38.5 61l118 75l126 89q-66 33 -129 58z" />
<glyph unicode="+" horiz-adv-x="1183" d="M94 483q0 23 5 56.5t16 48.5h424v172q0 53 -1 113.5t-1 140.5q23 14 47 17t55 3v-446h448q0 -31 -3 -55.5t-17 -47.5q-80 0 -139.5 1t-110.5 1h-178v-454q-14 -10 -48 -15.5t-56 -5.5q0 61 1 131t1 142q2 72 2 141v61h-47q-66 0 -135 -1l-136 -2q-68 -1 -127 -1z" />
<glyph unicode="," horiz-adv-x="530" d="M123 -348q63 72 97 139.5t34 120.5q0 90 -96 102q0 20 3 58.5t13 64.5q47 10 88 24.5t76 37.5q70 -27 70 -148q0 -61 -17.5 -119.5t-48.5 -114t-71 -104.5t-83 -92q-40 0 -65 31z" />
<glyph unicode="-" horiz-adv-x="858" d="M123 471q0 35 9 75t24 66h579q0 -33 -6 -68.5t-20 -64.5q-55 0 -135 -1l-160 -2l-159 -2q-77 -1 -132 -3z" />
<glyph unicode="." horiz-adv-x="483" d="M123 92q0 47 35 82t90 35q53 0 82.5 -36t29.5 -71q0 -61 -36.5 -89.5t-83.5 -28.5q-55 0 -86 30.5t-31 77.5z" />
<glyph unicode="/" horiz-adv-x="747" d="M68 35l528 1425q23 -6 48.5 -21.5t39.5 -31.5l-528 -1425q-29 10 -53.5 24.5t-34.5 28.5z" />
<glyph unicode="0" horiz-adv-x="1230" d="M82 522q0 123 47 219.5t124 162t173 99t197 33.5q100 0 194 -33.5t168 -99t119 -162t45 -219.5t-43 -223t-114.5 -171t-168 -108.5t-200.5 -37.5q-106 0 -205 37.5t-173.5 108.5t-118.5 171t-44 223zM268 551q0 -76 28 -156t81 -146.5t128 -108.5t171 -42q74 0 127 31 t87 83t50 120.5t16 144.5q0 70 -25.5 150t-75.5 147.5t-124 112.5t-168 45q-72 0 -127 -30t-92 -82t-56.5 -120.5t-19.5 -148.5z" />
<glyph unicode="1" horiz-adv-x="794" d="M154 -6q0 23 2 44t8 44q78 4 109.5 40t31.5 138v504q0 49 -6 83t-22.5 54.5t-43 29.5t-69.5 11q-10 41 -10 88q25 -2 56 -3l65 -2q34 -1 65 -1h57q66 0 130.5 1t113.5 5q0 -47 -10 -88q-82 -4 -112 -41t-30 -137v-504q0 -51 7.5 -85t24 -53.5t43 -28.5t67.5 -11 q6 -23 8 -44.5t2 -43.5q-31 2 -66 4l-67 2h-111q-55 0 -121.5 -1t-121.5 -5z" />
<glyph unicode="2" horiz-adv-x="1099" d="M133 80l177 163l173 154q57 51 95 94.5t62 83t33 80.5t9 88q0 37 -13.5 69t-38 56.5t-56 39t-68.5 14.5q-86 0 -131 -57.5t-66 -207.5q-27 0 -58.5 3.5t-51.5 11.5q2 27 4 61.5t2 70.5t-2 70.5t-8 63.5q39 27 76.5 45t82.5 30.5t97.5 17.5t117.5 5q51 0 106.5 -13 t101.5 -45t75 -83t29 -125q0 -47 -11.5 -86t-38 -79t-69.5 -85t-107 -102l-120 -111l-129 -123h299q43 0 69.5 3t41.5 16.5t22.5 38t9.5 67.5q59 0 96 -14q0 -78 5 -136.5t18 -115.5q-10 -18 -25.5 -32.5t-40.5 -14.5q-98 2 -197.5 3t-205.5 1h-84q-45 0 -92 -1l-91 -2 q-43 -1 -71 -1q-16 18 -21.5 36.5t-5.5 47.5z" />
<glyph unicode="3" horiz-adv-x="1050" d="M102 -258q0 16 6.5 33.5t22.5 34.5q27 -18 91.5 -38t168.5 -20q59 0 121.5 20.5t113 60.5t83 100.5t32.5 140.5q0 119 -73.5 198.5t-223.5 79.5q-39 0 -65 -14q-16 16 -26.5 36.5t-10.5 35.5l206 265l136 185h-250q-45 0 -74.5 -5t-51 -20.5t-37 -43t-29.5 -74.5 q-23 0 -45.5 6t-38.5 20q16 76 19 144.5t3 140.5q51 -2 139.5 -3t219.5 -1q127 0 202.5 1t130.5 3q16 -14 21.5 -35.5t3.5 -46.5l-156 -192l-192 -246q76 4 147.5 -20.5t128 -76t90 -129t33.5 -180.5q0 -90 -38 -172t-108.5 -144t-172 -99t-228.5 -37q-102 0 -178 26.5 t-121 65.5z" />
<glyph unicode="4" horiz-adv-x="1222" d="M92 66l68 89l84 114l94 133l100 143l99 140l95 135l87 120l72 96q25 0 50 -5t42 -15v-854h178q41 0 59 -19q-14 -29 -25.5 -71.5t-11.5 -71.5h-200v-311q-18 0 -47 -5.5t-54.5 -11.5t-46 -13t-22.5 -9q-23 23 -23 67v283h-14q-158 0 -287 -4l-260 -8q-12 12 -24.5 33.5 t-12.5 44.5zM311 162h379v569z" />
<glyph unicode="5" horiz-adv-x="985" d="M123 -285q0 35 27 68q27 -10 83 -20.5t117 -10.5t116.5 22.5t98.5 65.5t67.5 104.5t24.5 137.5q0 88 -44 153.5t-112.5 111.5t-152.5 72.5t-164 35.5q-16 10 -25 28.5t-9 34.5l124 510q53 -2 99.5 -3t87.5 -1h168q59 0 82.5 28.5t23.5 69.5q18 6 44 8.5t48 2.5 q-8 -55 -10 -120t-2 -136q-10 -16 -30.5 -26.5t-61.5 -10.5h-92q-57 0 -117.5 -1t-113 -2t-72.5 -3l-49 -207q131 -29 238.5 -68t184 -97.5t118.5 -137t42 -187.5q0 -119 -48 -210t-122 -152.5t-163 -93t-171 -31.5q-78 0 -140 18t-95 47z" />
<glyph unicode="6" horiz-adv-x="1026" d="M72 492q0 229 72.5 382.5t184 248t245 136t253.5 48.5q10 -12 15.5 -25.5t5.5 -38.5q-145 -31 -256 -82t-184.5 -137t-112.5 -215q-14 -49 -25 -109l66 41q41 25 78 39.5t72.5 21.5t74.5 7q176 0 279.5 -96.5t103.5 -278.5q0 -102 -35 -185t-94 -142.5t-137 -92 t-166 -32.5q-221 0 -330.5 130t-109.5 380zM258 500q0 -125 28.5 -207t70.5 -130t89.5 -67.5t83.5 -19.5q61 0 105.5 26.5t72 67.5t41 91t13.5 97q0 98 -28.5 162t-73 101.5t-95.5 52t-96 14.5q-51 0 -102 -16q-45 -12 -105 -51q-4 -58 -4 -121z" />
<glyph unicode="7" horiz-adv-x="993" d="M102 721q18 78 26.5 149.5t8.5 157.5q80 -4 160 -4h324q59 0 110 1t89 2t61 1q10 -6 18 -18.5t12 -26.5l-157 -275l-164 -302q-49 -96 -81 -178.5t-51.5 -159t-26.5 -153.5t-7 -163l-81 -55.5t-64 -56.5q-18 4 -28.5 14t-10.5 22q0 66 16 156t45 188q14 51 50 133.5 t88.5 187.5l120.5 230l151 267h-326q-43 0 -74.5 -4.5t-54.5 -19.5t-39 -43t-31 -75q-20 0 -44 6.5t-40 18.5z" />
<glyph unicode="8" horiz-adv-x="1040" d="M113 289q0 72 19.5 129t57 105t93.5 89q47 37 106 74q-109 74 -168 141q-70 78 -69 181q0 57 22.5 110t66.5 94t110.5 67t152.5 26q174 0 273.5 -69t99.5 -204q0 -63 -24 -111.5t-60.5 -86t-83.5 -68.5l-68 -39l64 -45q72 -53 122 -108.5t75.5 -118t25.5 -136.5 q0 -78 -32 -140t-87 -106t-132 -67.5t-167 -23.5t-163 24.5t-125 66.5t-80.5 98.5t-28.5 117.5zM289 305q0 -68 22.5 -115t59.5 -74.5t82 -40t92 -12.5q29 0 63.5 11.5t65.5 36t51 65.5t20 103q0 113 -81 198q-70 74 -199 160q-45 -33 -78 -66q-35 -35 -57.5 -73.5 t-31.5 -85t-9 -107.5zM344 1049q-2 -80 43 -136.5t154 -121.5l26 -17q61 41 90 88q35 55 35 144q0 106 -53 161.5t-125 55.5q-76 0 -122 -43t-48 -131z" />
<glyph unicode="9" horiz-adv-x="1062" d="M82 580q0 111 36 195.5t97 143t144 88t180 29.5q236 0 344 -137t108 -403q0 -135 -39 -247t-102.5 -202t-146 -159.5t-173 -119t-180.5 -78t-166 -38.5q-14 18 -17 34.5t-3 39.5q162 61 281.5 134.5t199.5 166t119 204.5q10 31 18 64q-63 -51 -123 -76q-72 -29 -157 -29 q-86 0 -163 28t-133 79t-90 123t-34 160zM272 651q0 -109 32 -173t81 -100t106.5 -47.5t108.5 -11.5q61 0 119 23q45 16 80 49q4 45 4 90q0 123 -21.5 211t-59.5 144.5t-92.5 83t-119.5 26.5q-53 0 -96 -23.5t-75 -63.5t-49.5 -94.5t-17.5 -113.5z" />
<glyph unicode=":" horiz-adv-x="491" d="M123 770q0 47 35 82t90 35q53 0 82.5 -36t29.5 -71q0 -61 -36.5 -89.5t-83.5 -28.5q-55 0 -86 30.5t-31 77.5zM131 160q0 47 35 81.5t90 34.5q53 0 83 -35.5t30 -70.5q0 -61 -37 -90t-84 -29q-55 0 -86 31t-31 78z" />
<glyph unicode=";" horiz-adv-x="530" d="M123 -348q63 72 97 139.5t34 120.5q0 90 -96 102q0 20 3 58.5t13 64.5q47 10 88 24.5t76 37.5q70 -27 70 -148q0 -61 -17.5 -119.5t-48.5 -114t-71 -104.5t-83 -92q-40 0 -65 31zM168 745q0 47 35 82t90 35q53 0 83 -35.5t30 -70.5q0 -61 -37 -90t-84 -29q-55 0 -86 30.5 t-31 77.5z" />
<glyph unicode="&#x3c;" horiz-adv-x="1019" d="M98 531.5q2 29.5 21 56.5l706 567q33 -8 54.5 -20.5t42.5 -34.5l-721 -572l688 -489q6 -29 1 -62.5t-22 -52.5l-196 148l-183 132l-184 131l-205 140q-4 27 -2 56.5z" />
<glyph unicode="=" d="M90 301q0 23 6 54.5t17 45.5h901q0 -31 -4 -53t-19 -45q-61 0 -110.5 1t-96.5 1h-342q-55 0 -110 -1l-114 -2q-58 -1 -128 -1zM96 639q0 23 6.5 54.5t16.5 45.5h897q0 -31 -4 -53t-19 -45q-61 0 -109 1t-96 1h-342q-55 0 -110 -1l-113 -2q-57 -1 -127 -1z" />
<glyph unicode="&#x3e;" horiz-adv-x="1007" d="M92 1100q20 23 42 35t54 20l707 -567q18 -27 20.5 -56.5t-2.5 -56.5l-204 -140l-185 -131l-182 -132l-197 -148q-16 18 -21 52t1 63l688 489z" />
<glyph unicode="?" horiz-adv-x="1099" d="M246 1135q2 37 4 66.5t2 57t-1 55t-5 60.5q51 33 124.5 60.5t190.5 27.5q72 0 132.5 -17.5t104.5 -50t68.5 -81.5t24.5 -113q0 -100 -46 -174t-102.5 -143.5t-102.5 -147.5t-46 -184q0 -25 6 -68t16 -71q-18 -10 -35.5 -13.5t-37.5 -3.5q-35 23 -64.5 92.5t-29.5 157.5 q0 68 19 120t48 95t62.5 80t62.5 74t48.5 76.5t19.5 91.5q0 88 -50.5 142t-115.5 54q-78 0 -121 -61.5t-60 -202.5q-29 0 -62.5 5.5t-53.5 15.5zM434 94q0 51 36 87t95 36q55 0 87 -37t32 -76q0 -66 -39 -94t-88 -28q-59 0 -91 31.5t-32 80.5z" />
<glyph unicode="@" horiz-adv-x="2048" d="M258 467q0 184 56.5 345t164 280.5t264 189.5t357.5 70q172 0 301 -49.5t215 -133.5t129 -195.5t43 -238.5q0 -166 -43 -304t-109.5 -237.5t-148.5 -155.5t-158 -56q-80 0 -109.5 53t-29.5 147v152q-18 -68 -43 -123q-45 -104 -107.5 -166.5t-138.5 -62.5 q-115 0 -184.5 96t-69.5 328q0 121 27.5 222t79 173.5t121 113.5t155.5 41q59 0 109 -6q35 -4 78 -12q20 0 43 4q31 4 59 14q14 -4 22.5 -14t13.5 -31.5t7 -57.5t2 -93v-391q0 -76 2 -121t9 -68.5t22.5 -31t40.5 -7.5q31 0 73.5 37t81.5 110.5t67 181.5t28 249 q0 111 -38 210t-115 175t-190.5 120t-265.5 44q-174 0 -304 -59.5t-217 -164t-130 -248t-43 -311.5q0 -160 44 -306t134 -257.5t225.5 -177.5t319.5 -66q170 0 319.5 55.5t258.5 178.5q51 -8 63 -51q-47 -66 -117.5 -117t-158 -86t-187.5 -53.5t-207 -18.5 q-209 0 -363.5 65.5t-256 183.5t-151.5 280t-50 352zM831 467q0 -178 37 -247.5t86 -69.5q25 0 62 33.5t72.5 102t66.5 171.5q29 96 41 223q2 37 2 74q2 27 2 49q-39 29 -84 43q-51 18 -98 18q-98 0 -142.5 -93t-44.5 -304z" />
<glyph unicode="A" horiz-adv-x="1441" d="M51 -6q0 20 3 43.5t12 42.5q27 6 47 18.5t38.5 37t35.5 64.5l42 101l424 1088q35 8 80 8l488 -1118q25 -57 44 -94.5t36.5 -59t35 -30.5t41.5 -13q8 -27 10.5 -45.5t2.5 -42.5q-16 0 -45 1t-64 3l-68 2h-57q-25 0 -58 -1l-67 -2q-33 -1 -62.5 -2t-43.5 -1q0 25 2 47 t12 41q43 4 66.5 12t32 25.5t2 46.5t-26.5 76l-90 209q-133 0 -281 -2q-141 -2 -262 -7l-53 -141q-34 -87 -34 -135q0 -19 5 -32q18 -46 102 -52q14 -35 15 -88q-35 4 -89.5 5t-105.5 1t-96 -2t-74 -4zM420 543h465l-156 364l-26 58l-22 54l-24 56q-8 25 -20 53 q-20 -68 -39 -116l-37 -103z" />
<glyph unicode="B" horiz-adv-x="1294" d="M117 -6q0 59 10 88q41 2 68.5 11t44 31.5t23.5 60.5t7 98v841q0 102 -29.5 138t-111.5 41q-6 16 -8 39.5t-2 48.5q41 -4 99 -5.5t114 -1.5q74 0 147.5 2.5t145.5 2.5q88 0 166.5 -13.5t139 -47.5t95.5 -91t35 -147q0 -133 -80 -225.5t-217 -112.5q80 -4 152.5 -23.5 t128 -59.5t88 -105.5t32.5 -160.5q0 -84 -27.5 -157.5t-87 -128t-152.5 -86t-224 -31.5h-137q-80 0 -160 -1t-150.5 -2t-109.5 -3zM463 283q0 -63 8 -101.5t29.5 -59t58.5 -27.5t94 -7q152 0 222.5 76t70.5 211q0 94 -40 153.5t-103.5 93t-140 45t-152.5 11.5h-47v-395z M463 770h63q98 0 162 21.5t100.5 58.5t50 83t13.5 95q0 80 -28.5 133t-73.5 85t-98.5 44.5t-104.5 12.5q-29 0 -53 -5q-14 -2 -31 -6v-522z" />
<glyph unicode="C" horiz-adv-x="1337" d="M72 702q0 176 58 307.5t153.5 219.5t218.5 131t254 43q129 0 234.5 -26.5t219.5 -80.5q-16 -72 -19 -151.5t-3 -165.5q-27 -10 -51.5 -14t-57.5 -4q-4 109 -26.5 178t-62.5 109t-95 55.5t-123 15.5q-129 0 -221 -47t-150.5 -126t-86 -180.5t-27.5 -207.5 q0 -137 35.5 -256t102.5 -207t164 -138.5t220 -50.5q98 0 200.5 33t188.5 88q12 -10 23.5 -29.5t13.5 -33.5q-61 -47 -119.5 -81t-120 -56.5t-128 -33.5t-144.5 -11q-143 0 -263 52t-206 147t-134 228t-48 293z" />
<glyph unicode="D" horiz-adv-x="1497" d="M117 -6q0 59 10 88q41 2 68.5 11t44 31.5t23.5 60.5t7 98v841q0 102 -29.5 138t-111.5 41q-6 16 -8 39.5t-2 48.5q20 -2 52 -3l67 -3q35 -1 71 -1h70q68 0 135.5 2.5t132.5 2.5q135 0 274.5 -25t251 -95.5t182 -200.5t70.5 -341q0 -166 -42 -284.5t-108.5 -198.5 t-151.5 -129t-171 -74t-166.5 -33t-138.5 -8h-133q-76 0 -150.5 -1t-141 -2t-105.5 -3zM463 283q0 -57 7 -94t27.5 -58.5t56.5 -30t93 -8.5q123 0 226.5 30t179 99.5t118.5 185t43 289.5q0 166 -50 283t-134 190.5t-192.5 107.5t-223.5 34q-37 0 -81 -5.5t-70 -13.5v-1009z " />
<glyph unicode="E" horiz-adv-x="1196" d="M117 -6q0 59 10 88q41 2 68.5 11t44 31.5t23.5 60.5t7 98v841q0 102 -29.5 138t-111.5 41q-6 16 -8 39.5t-2 48.5q31 -2 78 -3l97 -3q50 -1 95 -1h74q211 0 346 2.5t186 4.5q2 -35 7 -77l11 -86q5 -44 11 -86t14 -75q-16 -14 -39.5 -19.5t-52.5 -5.5q-4 47 -19.5 94.5 t-53 84t-101 59.5t-162.5 23h-147v-562h86q63 0 106 7.5t70 26t39 51t12 81.5q27 8 48.5 11.5t49.5 3.5q-4 -53 -4 -113v-229q0 -66 4 -119q-29 0 -50 2t-44 8q-4 53 -17 88t-40 56.5t-69 29.5t-105 8h-86v-370q0 -57 7 -94t27.5 -58.5t56.5 -30t93 -8.5h12q94 0 153.5 16.5 t97.5 49t61.5 81t46.5 111.5q31 -10 51.5 -20.5t38.5 -28.5q-23 -72 -38 -152.5t-26 -152.5q-31 0 -74.5 1t-97 2t-110.5 1h-248q-76 0 -150.5 -1t-141 -2t-105.5 -3z" />
<glyph unicode="F" horiz-adv-x="1110" d="M117 -6q0 59 10 88q82 4 111.5 40t29.5 138v864q0 102 -29.5 138t-111.5 41q-10 29 -10 88q33 -2 78 -3l91 -3q46 -1 91 -1h84q209 0 342 2.5t184 4.5q2 -35 7 -77l11 -86q5 -44 11 -86t14 -75q-16 -14 -39.5 -19.5t-52.5 -5.5q-4 47 -19.5 94.5t-53.5 84t-101.5 59.5 t-161.5 23h-141v-603h100q63 0 106.5 7.5t70 26t38.5 51t12 81.5q27 8 48.5 11.5t50.5 3.5q-4 -53 -4 -113v-229q0 -66 4 -119q-29 0 -50.5 2t-43.5 8q-4 53 -17.5 88t-40 56.5t-68.5 29.5t-106 8h-100v-311q0 -68 10 -108.5t32.5 -65.5t56.5 -34t83 -11q10 -29 10 -88 q-47 4 -116.5 5t-141.5 1h-78q-39 0 -77.5 -1t-70.5 -2t-52 -3z" />
<glyph unicode="G" horiz-adv-x="1497" d="M72 711q0 172 60.5 302t160.5 216t227 130t262 44q147 0 273.5 -26.5t218.5 -69.5q-14 -72 -18.5 -149t-4.5 -169q-49 -18 -108 -18q-4 106 -32 174.5t-74 106.5t-107.5 52.5t-130.5 14.5q-131 0 -227.5 -47t-159 -125t-93 -179.5t-30.5 -211.5q0 -139 30.5 -262 t93 -214.5t156 -144.5t217.5 -53q61 0 109.5 6t97.5 27q35 14 52.5 44.5t17.5 108.5v103q0 70 -6 109.5t-24.5 60t-53.5 26.5t-92 8q-6 16 -9.5 43t-3.5 52q39 -4 113 -5t137 -1t135 1t105 3q0 -18 -2 -45t-10 -48q-31 -2 -49.5 -8t-29.5 -26.5t-14.5 -60.5t-3.5 -109v-92 q0 -43 5.5 -78t21.5 -66q-88 -66 -225 -109.5t-312 -43.5q-152 0 -275.5 52t-212.5 147t-137 229.5t-48 300.5z" />
<glyph unicode="H" horiz-adv-x="1544" d="M117 -6q0 59 10 88q82 4 111.5 40t29.5 138v864q0 102 -29.5 138t-111.5 41q-10 29 -10 88q113 -6 248 -7q66 0 126 1t121 6q0 -59 -10 -88q-82 -4 -111.5 -40t-29.5 -139v-370h624v370q0 102 -29.5 138t-111.5 41q-10 29 -10 88q113 -6 248 -7q66 0 126 1t122 6 q0 -59 -11 -88q-82 -4 -111.5 -40t-29.5 -139v-864q0 -102 29.5 -138t111.5 -40q10 -29 11 -88q-123 6 -248 6q-59 0 -127 -1t-121 -5q0 59 10 88q82 4 111.5 40t29.5 138v406h-120q-92 0 -189.5 -1t-189.5 -6q-72 -2 -125 -6v-393q0 -102 29.5 -138t111.5 -40 q10 -29 10 -88q-123 6 -247 6q-59 0 -127 -1t-121 -5z" />
<glyph unicode="I" horiz-adv-x="727" d="M117 -6q0 59 10 88q82 4 111.5 40t29.5 138v864q0 102 -29.5 138t-111.5 41q-10 29 -10 88q113 -6 248 -7q66 0 126 1t121 6q0 -59 -10 -88q-82 -4 -111.5 -40t-29.5 -139v-864q0 -102 29.5 -138t111.5 -40q10 -29 10 -88q-123 6 -247 6q-59 0 -127 -1t-121 -5z" />
<glyph unicode="J" horiz-adv-x="692" d="M37 -457q57 49 102 100.5t76 114t46 138t15 174.5v1054q0 102 -29.5 138t-111.5 41q-10 29 -10 88q45 -4 112.5 -5.5t135.5 -1.5t139.5 1t108.5 6q0 -59 -11 -88q-78 -4 -109.5 -40t-31.5 -139v-868q0 -143 -13.5 -254t-54.5 -201t-119.5 -164.5t-209.5 -146.5 q-29 16 -35 53z" />
<glyph unicode="K" horiz-adv-x="1388" d="M117 -6q0 59 10 88q82 4 111.5 40t29.5 138v864q0 102 -29.5 138t-111.5 41q-10 29 -10 88q113 -6 248 -7q66 0 126 1t121 6q0 -59 -10 -88q-82 -4 -111.5 -40t-29.5 -139v-397l366 385q53 55 77 91t23 57.5t-20.5 30.5t-52.5 12q-6 20 -8 42.5t-2 45.5q35 -4 92 -5.5 t119 -1.5q127 0 211 7q0 -20 -2 -45t-11 -43q-35 -2 -66.5 -10.5t-65.5 -28t-72.5 -53t-87.5 -85.5l-332 -356q70 -59 133 -145l160 -207q49 -66 102 -126.5t106.5 -106.5t106.5 -73.5t106 -29.5q0 -16 -2 -39t-8 -43q-78 0 -164 -2t-161 -10q-37 59 -103.5 153.5 t-147.5 196.5t-169 197q-68 76 -127 131v-406q0 -102 29.5 -138t111.5 -40q10 -29 10 -88q-123 6 -247 6q-59 0 -127 -1t-121 -5z" />
<glyph unicode="L" horiz-adv-x="1148" d="M117 -6q0 59 10 88q41 2 68.5 11t44 31.5t23.5 60.5t7 98v841q0 102 -29.5 138t-111.5 41q-6 16 -8 39.5t-2 48.5l63 -5l68 -2h117q66 0 126 1t121 6q0 -59 -10 -88q-41 -2 -67.5 -11.5t-43 -30t-23.5 -55.5t-7 -88v-835q0 -57 7 -94t27.5 -58.5t56.5 -30t93 -8.5h12 q86 0 142.5 13.5t96.5 44t67.5 80t52.5 120.5q31 -10 51.5 -20.5t38.5 -28.5q-23 -72 -38 -152.5t-26 -152.5q-31 0 -74.5 1t-97 2t-110.5 1h-248q-76 0 -150.5 -1t-141 -2t-105.5 -3z" />
<glyph unicode="M" horiz-adv-x="1914" d="M82 -6q0 14 2 39.5t8 48.5q41 4 68.5 16.5t46 43t31 88t20.5 149.5l66 729q3 28 2 51q0 70 -23 102q-31 42 -117 42q-6 20 -8 44.5t-2 43.5q31 -4 74 -5.5t82 -1.5q76 0 155 7l512 -1133l447 1133q35 -4 77 -5.5t83 -1.5t77.5 1t77.5 6q0 -23 -2 -44.5t-8 -43.5 q-37 0 -65.5 -9.5t-47 -33t-25.5 -63.5q-4 -22 -4 -49q0 -24 3 -52l74 -752q8 -76 18 -125t27.5 -77.5t42 -42t61.5 -15.5q6 -23 8 -46.5t2 -43.5q-25 2 -55 3l-64 2q-33 1 -67 1h-60q-55 0 -125.5 -1t-123.5 -5q0 18 3 42.5t9 45.5q49 4 77.5 16.5t41 38t12.5 69.5t-6 111 l-74 703l-424 -1024q-35 -14 -84 -14l-477 1036l-66 -658q-6 -60 -5 -103v-31q3 -52 18.5 -82.5t45.5 -44t75 -17.5q6 -23 8 -48.5t2 -39.5q-49 4 -111.5 5t-107.5 1t-104.5 -1t-100.5 -5z" />
<glyph unicode="N" horiz-adv-x="1552" d="M117 -6q0 27 2 48t8 40q41 0 68.5 14.5t44 49t22.5 93t6 144.5v846l-8 10q-29 37 -55.5 48t-77.5 16q-6 23 -8 47t-2 41q31 -4 71.5 -5.5t79.5 -1.5q82 0 138 7l796 -1057v678q0 84 -6 139t-22.5 89t-44 48.5t-68.5 14.5q-6 35 -8 52t-2 36q45 -4 97 -5.5t95 -1.5t98.5 1 t96.5 6q0 -20 -2 -43t-9 -45q-35 0 -57 -14.5t-36.5 -48.5t-20.5 -89t-6 -139v-1020q-16 -6 -39 -8t-45 -2l-850 1110v-709q0 -86 6 -144.5t22.5 -93t44 -49t68.5 -14.5q6 -18 8 -38.5t2 -49.5q-47 4 -102 5t-100 1t-105.5 -1t-99.5 -5z" />
<glyph unicode="O" horiz-adv-x="1497" d="M72 696q0 156 52 286t143 224t215 145.5t266 51.5q147 0 271 -51.5t214 -144.5t141 -223t51 -288q0 -152 -50 -281.5t-140 -226t-214 -151.5t-273 -55q-152 0 -277 54t-214 150.5t-137 226t-48 283.5zM283 752q0 -129 32.5 -250t97 -214t159 -149.5t216.5 -56.5 q100 0 179.5 44t134.5 120t83.5 178t28.5 219q0 137 -38.5 258t-106.5 211t-161 141.5t-203 51.5q-90 0 -168 -40t-134.5 -113t-88 -174t-31.5 -226z" />
<glyph unicode="P" horiz-adv-x="1193" d="M117 -6q0 59 10 88q82 4 111.5 40t29.5 138v864q0 102 -29.5 138t-111.5 41q-10 29 -10 88q80 -4 154.5 -5.5t123.5 -1.5q53 0 128 2.5t163 2.5q113 0 195 -33t135 -89.5t78.5 -132t25.5 -161.5q0 -78 -28.5 -159t-87 -146.5t-145.5 -107.5t-204 -42q-43 0 -78.5 6 t-64.5 17q-4 16 -3 34.5t5 32.5q51 -12 113 -12q57 0 110.5 14.5t95 51t67.5 100t26 162.5q0 86 -20.5 156.5t-63.5 121.5t-108.5 80t-158.5 29q-35 0 -63 -4q-20 -2 -51 -9v-997q0 -68 10 -108.5t32.5 -65.5t56.5 -34t83 -11q10 -29 10 -88q-47 4 -116.5 5t-141.5 1h-78 q-39 0 -77.5 -1t-70.5 -2t-52 -3z" />
<glyph unicode="Q" horiz-adv-x="1538" d="M72 696q0 156 52 286t143 224t215 145.5t266 51.5q147 0 271 -51.5t214 -144.5t141 -223t51 -288q0 -152 -50 -281.5t-140 -226t-215 -151.5q-14 -8 -31 -14q70 -20 123 -52l139 -85q66 -42 140 -69q54 -20 124 -20q26 0 54 2q0 -18 -3 -39.5t-10 -42.5 q-59 -18 -117.5 -38.5t-135.5 -55.5q-68 16 -113 47t-81 69t-68.5 77t-71.5 73.5t-92.5 59t-124.5 33.5h-4q-152 0 -277 54t-214 150.5t-137 226t-48 283.5zM283 752q0 -129 32.5 -250t97 -214t159 -149.5t216.5 -56.5q100 0 179.5 44t134.5 120t83.5 178t28.5 219 q0 137 -38.5 258t-106.5 211t-161 141.5t-203 51.5q-90 0 -168 -40t-134.5 -113t-88 -174t-31.5 -226z" />
<glyph unicode="R" horiz-adv-x="1402" d="M117 -6q0 23 2 45t8 43q82 4 111.5 40t29.5 138v864q0 102 -29.5 140.5t-111.5 38.5q-6 20 -8 40.5t-2 45.5q31 -2 102.5 -3.5t142.5 -1.5q86 0 171 2.5t172 2.5q117 0 200.5 -27t138 -73t81 -108.5t26.5 -136.5q0 -143 -98 -241q-90 -90 -244 -131q27 -25 49 -49 q29 -31 55.5 -69t55.5 -87l67 -121q72 -129 141.5 -194.5t172.5 -69.5q0 -25 -1 -45.5t-8 -42.5q-78 0 -161.5 -2t-159.5 -10q-33 51 -80 135t-96 182q-47 94 -115 184q-53 74 -119 142q-42 -2 -79 -2t-70 2v-365q0 -102 28.5 -138t106.5 -40q6 -18 8 -42t2 -46 q-66 4 -135.5 5t-108.5 1h-59q-33 0 -66 -1l-66 -2q-31 -1 -54 -3zM461 725q20 -4 39 -4q25 -2 51 -2q84 0 156.5 17.5t127 55t85 95t30.5 137.5q0 129 -76.5 210t-261.5 81q-47 0 -84 -4q-33 -4 -67 -13v-573z" />
<glyph unicode="S" horiz-adv-x="1095" d="M139 113q12 78 15.5 155.5t3.5 134.5q23 6 53.5 9.5t56.5 3.5q4 -78 20.5 -139.5t50.5 -105.5t90 -67.5t142 -23.5q57 0 100.5 17.5t72 46t44 66.5t15.5 81q0 92 -47 149.5t-118 99.5t-154 79.5t-153.5 90t-117.5 130.5t-47 202q0 80 27.5 146.5t76.5 115t118 74 t153 25.5q115 0 196.5 -27.5t124.5 -62.5q0 -59 2 -137t10 -134q-23 -10 -54.5 -14t-59.5 -4q-16 88 -37 144.5t-48.5 88t-61 44t-72.5 12.5q-92 0 -145.5 -53.5t-53.5 -151.5q0 -90 47 -147.5t118 -102.5t152.5 -85t152.5 -92t118 -126t47 -186q0 -78 -32 -148.5t-87 -124 t-131 -84t-166 -30.5q-72 0 -126 7t-100 22.5t-92.5 40t-103.5 61.5z" />
<glyph unicode="T" horiz-adv-x="1198" d="M51 1083q16 72 24.5 154t8.5 154q86 -4 226.5 -5.5t295.5 -1.5h154q76 0 144.5 1t127 2.5t101.5 3.5q0 -139 12 -308q-23 -10 -48.5 -14t-49.5 -4q-4 111 -60.5 175.5t-185.5 64.5h-99v-1045q0 -51 6.5 -85t24 -53.5t49 -28.5t80.5 -11q10 -29 10 -88q-66 4 -134 5 t-134 1t-138.5 -1t-129.5 -5q0 59 10 88q49 2 81 11t50.5 28.5t25.5 53.5t7 85v1045h-104q-80 0 -126.5 -18.5t-73 -51.5t-38.5 -76t-23 -94q-23 0 -49.5 4t-44.5 14z" />
<glyph unicode="U" horiz-adv-x="1443" d="M117 1391q41 -4 107.5 -5.5t129.5 -1.5t127 1t111 6q0 -20 -2 -43t-8 -45q-45 -4 -73 -11.5t-43 -26t-20.5 -52t-5.5 -89.5v-622q0 -86 16.5 -162t56.5 -131t106.5 -87t168.5 -32q51 0 113 17.5t105 60.5q25 25 41 53.5t26 71.5t15.5 101.5t5.5 140.5v507q0 74 -5.5 122 t-20.5 78t-43 43t-73 18q-6 31 -8 48t-2 40q35 -4 90 -5.5t103 -1.5q47 0 100 1t94 6q0 -14 -2 -34t-8 -54q-35 -4 -58.5 -17.5t-38 -42.5t-19.5 -78t-5 -123v-491q0 -88 -5 -156.5t-18.5 -123t-36 -96.5t-57.5 -77q-59 -59 -143 -87.5t-188 -28.5q-143 0 -239.5 31.5 t-155 94t-83 154.5t-24.5 211v651q0 55 -5 88t-18.5 51.5t-37 26.5t-60.5 13q-6 23 -8 45.5t-2 42.5z" />
<glyph unicode="V" horiz-adv-x="1404" d="M51 1391q41 -4 111.5 -5.5t136.5 -1.5q131 0 248 7q0 -41 -10 -88q-49 -4 -79 -13.5t-39 -33.5q-4 -11 -5 -26q0 -17 6 -39q10 -42 41 -112l172 -403l158 -387l137 358q74 197 143 406q27 79 27 134q0 23 -4 42q-16 63 -113 74q-6 23 -8 47t-2 41q45 -4 86 -5.5t88 -1.5 t105.5 1t103.5 6q0 -23 -2 -44.5t-9 -43.5q-63 -16 -99 -78t-73 -164l-193 -532l-202 -533q-35 -8 -80 -8l-119 297l-119 285l-113 265l-103 232l-57 121q-22 45 -40 69.5t-36.5 32.5t-47.5 13q-6 25 -8 48.5t-2 39.5z" />
<glyph unicode="W" horiz-adv-x="2054" d="M51 1391q49 -4 117 -5.5t115 -1.5h55q31 0 64 1l67 3q33 1 61 3q0 -16 -2 -40t-8 -48q-53 -4 -83.5 -11.5t-42 -29t-3.5 -62.5t33 -108l70 -201l73 -216l72 -218l41 -127l350 1061q16 6 36.5 8t53.5 2l108 -278l111 -292l109 -292l76 -207l198 680q23 78 29 130 q2 18 2 34q0 30 -7 52q-11 34 -42 51t-80 24q-8 20 -11 45.5t-3 42.5q86 -6 198 -7q47 0 100.5 1t94.5 6q0 -20 -3 -43t-11 -45q-27 -6 -47.5 -21.5t-40 -48.5t-40 -87t-44.5 -140l-299 -1012q-35 -12 -82 -12l-101 272l-107 285l-110 284l-94 240l-348 -1069q-16 -6 -41 -9 t-47 -3l-179 544l-186 541q-29 82 -47 128t-34.5 68.5t-35 28.5t-45.5 11q-6 20 -8 42.5t-2 45.5z" />
<glyph unicode="X" horiz-adv-x="1306" d="M57 -6q0 16 2 42.5t11 49.5q49 12 108.5 58t134.5 151l262 375l-4 6l-245 381l-87 129q-32 47 -54.5 70.5t-40 31.5t-42.5 12q-8 25 -10 46.5t-2 44.5q53 -4 122 -5.5t128 -1.5q57 0 129 1t119 4q0 -18 -2 -41t-6 -45q-43 -8 -68 -21.5t-30 -38.5q-1 -6 -1 -12 q0 -21 13 -51q16 -39 53 -97l166 -258l151 236q41 66 60 109q14 34 14 59q0 7 -1 13q-5 28 -30.5 41t-72.5 20q-6 23 -8.5 47t-2.5 41q51 -4 106.5 -5.5t102.5 -1.5t105.5 1t97.5 6q0 -20 -1 -43t-7 -45q-25 -6 -47.5 -17.5t-49 -37t-60.5 -68.5t-79 -113l-219 -334 q8 -16 19 -31l233 -380q43 -72 73.5 -117t56.5 -70.5t47.5 -37t45.5 -15.5q12 -37 13 -88q-45 4 -116 5t-134 1t-132 -1t-116 -3q0 18 2 40.5t6 45.5q39 4 63.5 13t30.5 32t-8 62.5t-53 105.5l-174 287l-178 -265q-73 -108 -73 -159q0 -57 107 -76q6 -23 8.5 -45.5 t2.5 -42.5q-53 4 -110.5 5t-115.5 1q-57 0 -114.5 -1t-98.5 -5z" />
<glyph unicode="Y" horiz-adv-x="1290" d="M51 1389q43 -2 98.5 -3.5t114.5 -1.5h142q39 0 73.5 1t59.5 4q0 -23 -2 -40.5t-9 -39.5q-80 -8 -91 -41q-2 -6 -2 -15q0 -34 38 -98l131 -231q59 -106 111 -209l102 192l115 207q45 79 45 120q0 11 -3 19q-15 39 -97 52q-6 23 -10.5 42t-4.5 42q37 -4 94 -5h107 q47 0 94 1t82 4q0 -41 -8 -80q-29 -8 -51.5 -21.5t-47 -38t-51 -63.5t-59.5 -99l-272 -483v-270q0 -82 5 -129t21.5 -71.5t47 -35t83.5 -16.5q12 -37 13 -88l-136 4q-68 2 -125 2h-73q-39 0 -78 -1t-73 -2t-54 -1q0 23 3 45t9 41q55 4 87 13t49.5 32t22.5 66t5 114v295 l-342 582l-36 55q-15 23 -31.5 37t-36 20.5t-48.5 8.5q-8 23 -10 42t-2 42z" />
<glyph unicode="Z" horiz-adv-x="1292" d="M119 59l387 629l364 615h-290q-68 0 -116 -9.5t-82 -38t-56.5 -80t-38.5 -135.5q-27 0 -62 4.5t-55 16.5q18 66 28.5 155t10.5 173q31 0 94.5 -1.5t136 -2.5t144.5 -1h317q90 0 201 5q10 -10 16 -29t6 -39l-381 -647l-364 -588h315q94 0 156.5 9t102.5 37t63.5 79 t40.5 135q68 -6 106 -35q-16 -68 -25.5 -151.5t-11.5 -165.5q-76 2 -142 3l-130 2q-63 1 -129 1h-272q-68 0 -128.5 -1t-109.5 -2t-80 -3q-8 16 -12 30.5t-4 34.5z" />
<glyph unicode="[" horiz-adv-x="634" d="M143 -551v2071q53 -4 103 -4h186q43 0 103 4q14 -12 18 -34t4 -44q-82 -6 -134 -15.5t-83 -29t-42 -54t-11 -94.5v-1571q0 -49 15 -76.5t46 -43t78 -20.5t109 -7q14 -16 18 -34.5t4 -47.5q-43 4 -100 4h-205q-56 0 -109 -4z" />
<glyph unicode="\" horiz-adv-x="745" d="M51 1452q10 4 23.5 6t29.5 2q39 0 56 -8l538 -1452q-16 -6 -54 -8t-52 2z" />
<glyph unicode="]" horiz-adv-x="632" d="M90 -551q0 29 4 47.5t19 34.5q61 2 108 7t78 20.5t46 43t15 76.5v1571q0 59 -11 94t-42 54.5t-83 29t-134 15.5q0 23 4 44t19 34q59 -4 100 -4h186q51 0 105 4v-2071q-53 4 -111 4h-205q-55 0 -98 -4z" />
<glyph unicode="^" horiz-adv-x="1138" d="M88 881l422 522q23 14 54.5 18t58.5 0l94 -140l108 -157l112 -156l103 -141q-18 -16 -52 -21t-62 1l-359 512l-225 -273q-111 -138 -199 -262q-23 20 -35 42t-20 55z" />
<glyph unicode="_" horiz-adv-x="1159" d="M123 -293q0 68 22 105h891q0 -23 -6 -54.5t-16 -48.5q-78 0 -136.5 1t-111.5 1h-311q-47 0 -97.5 -1t-107.5 -2t-127 -1z" />
<glyph unicode="`" horiz-adv-x="544" d="M-23 1442q41 20 93.5 22t103.5 -6q27 -88 61.5 -177t83.5 -181q-18 -10 -39.5 -9t-41.5 5q-72 111 -133.5 193.5t-127.5 152.5z" />
<glyph unicode="a" horiz-adv-x="989" d="M102 203q0 100 58.5 162.5t141.5 100.5t172 55.5t153 27.5q0 63 -2 104t-6.5 69t-13.5 46t-21 35q-49 61 -131 61q-47 0 -80 -24.5t-54.5 -60.5t-30.5 -76.5t-12 -75.5q-23 0 -56.5 3t-49.5 11q3 34 3 73q0 20 -1 41q-2 62 -12 109q82 41 172 66.5t186 25.5 q70 0 119 -21.5t88 -57.5q27 -27 43 -58t25.5 -72.5t13.5 -95t4 -127.5v-219q0 -98 21.5 -131t95.5 -33q0 -23 -3 -50.5t-12 -45.5q-53 -8 -113.5 -25.5t-103.5 -37.5q-20 8 -35.5 30.5t-15.5 69.5q0 31 2 51.5t2 34.5q-8 -27 -23.5 -53.5t-52.5 -59.5q-35 -31 -85 -50 t-119 -19q-133 0 -200 57.5t-67 159.5zM301 244q0 -76 37 -111t84 -35q33 0 68.5 16.5t66.5 51.5t50.5 89t19.5 132v78q-53 -6 -110.5 -17.5t-104.5 -34t-79 -62t-32 -107.5z" />
<glyph unicode="b" horiz-adv-x="1120" d="M20 1323q0 23 4.5 41t14.5 35q23 0 61.5 6t79.5 15.5t78 22.5t55 25q18 -6 31.5 -24.5t13.5 -57.5v-534q0 -37 -6 -72q-2 -8 -4 -20q16 31 27 45q14 23 39.5 49.5t62.5 49t82 37.5t96 15q180 0 281.5 -108.5t101.5 -345.5q0 -109 -36.5 -203t-103.5 -165t-161 -111.5 t-209 -40.5q-141 0 -239.5 39.5t-159.5 99.5q20 27 32.5 83t12.5 177v797q0 37 -4 63.5t-20.5 45t-47.5 27.5t-82 9zM358 147q29 -25 60 -43q49 -29 121 -28q43 0 94 16.5t96 61.5t76 121.5t31 199.5q0 98 -24 166t-57.5 109t-74.5 59t-74 18q-45 0 -89 -20.5t-80 -67.5 t-57.5 -121.5t-21.5 -181.5v-289z" />
<glyph unicode="c" horiz-adv-x="915" d="M82 465q0 92 27.5 180t82 157.5t133 111.5t183.5 42q193 0 309 -92q-10 -59 -12 -116.5t-2 -116.5q-16 -10 -44 -13.5t-50 -3.5q-12 119 -69.5 182.5t-147.5 63.5q-102 0 -161 -94t-59 -270q0 -78 19.5 -150t56.5 -127t91.5 -88t125.5 -33q137 0 228 119 q16 -8 30.5 -23.5t20.5 -33.5q-55 -88 -137 -133t-199 -45q-78 0 -155 30.5t-137 91t-97 150.5t-37 211z" />
<glyph unicode="d" horiz-adv-x="1150" d="M82 436q0 106 37 201.5t103.5 166t160.5 111.5t209 41q59 0 102 -10l68 -18v250q0 37 -4 63.5t-20.5 45t-47.5 27.5t-82 9q0 23 4 41t15 35q23 0 61.5 6t79.5 15.5t78 22.5t55 25q18 -6 31.5 -24.5t13.5 -57.5v-1126q2 -63 26.5 -93t110.5 -34q0 -23 -2 -44t-10 -44 q-23 0 -56.5 -5t-67.5 -13.5t-64.5 -20.5t-48.5 -24q-18 6 -35 26.5t-17 73.5q0 37 2 74q2 27 9 65q-8 -20 -19 -37q-18 -35 -29 -51q-14 -23 -39.5 -49.5t-62.5 -49t-82 -37.5t-96 -15q-180 0 -281.5 108t-101.5 346zM285 463q0 -98 23.5 -166t57 -109t73.5 -59t75 -18 q45 0 89 20.5t80 67.5t56 120q18 61 23 150v319q-29 25 -62 46q-47 29 -118 28q-43 0 -94.5 -16.5t-96.5 -61.5t-75.5 -121.5t-30.5 -199.5z" />
<glyph unicode="e" horiz-adv-x="970" d="M82 469q0 98 29.5 186t84 156t133.5 106.5t177 38.5q100 0 169.5 -33.5t115 -91t69 -134t29.5 -165.5q-8 -41 -31 -69h-104q-70 0 -157 -1t-181 -5q-68 -2 -131 -6q2 -45 10 -89q14 -74 48 -133t91.5 -96t147.5 -37q68 0 133 30t116 89q16 -10 31 -28.5t19 -34.5 q-72 -92 -162 -131t-203 -39q-109 0 -190.5 38.5t-136 104t-81 155t-26.5 189.5zM283 555h393q0 135 -49 219t-140 84q-37 0 -73.5 -15.5t-66.5 -55t-48 -107.5q-12 -51 -16 -125z" />
<glyph unicode="f" horiz-adv-x="700" d="M74 825q0 55 28 93h136v81q0 115 36.5 202t97 145.5t137.5 87t157 28.5t119.5 -15t74.5 -36q-4 -66 -6 -125t-2 -115q-27 -8 -57.5 -12t-59.5 -4q0 84 -36.5 139.5t-123.5 55.5q-84 0 -118.5 -75t-34.5 -212v-145h209q0 -20 -4 -46t-17 -47q-109 0 -188 -24v-500 q0 -68 10 -108.5t32.5 -65.5t56.5 -34t83 -11q10 -29 10 -88q-47 4 -116.5 5t-141.5 1h-75q-39 0 -76 -1t-68 -2t-51 -3q0 59 10 88q82 4 112 40t30 138v547q-45 10 -89 14t-75 4z" />
<glyph unicode="g" horiz-adv-x="1046" d="M84 -233q0 78 41 135q37 51 108 86q-20 8 -36 16q-33 23 -46.5 55.5t-13.5 79.5q0 68 39 131q29 47 70 86l-17 13q-51 41 -81.5 103.5t-30.5 143.5q0 70 23.5 132.5t69.5 108.5t114.5 72.5t160.5 26.5q72 0 129 -18h336q8 -27 11.5 -60.5t3.5 -66.5q-25 6 -58 12 t-66.5 11.5t-66.5 9.5h-8l8 -8q45 -49 65.5 -106.5t20.5 -100.5q0 -72 -23.5 -134.5t-70.5 -109.5t-116.5 -73.5t-160.5 -26.5q-74 0 -141 20q-8 4 -16 6q-23 -23 -35 -43q-16 -31 -16 -53q0 -29 9 -45t40.5 -25.5t90 -12.5t157.5 -3q102 0 172.5 -12.5t114.5 -39 t63.5 -70.5t19.5 -105q0 -70 -38 -142.5t-105.5 -133t-160.5 -98.5t-204 -38q-190 0 -273 71t-83 206zM260 -190q0 -104 51 -157.5t178 -53.5q68 0 121.5 18t91 49t57 72t19.5 84q0 39 -13 66.5t-50 44t-103.5 24.5t-171.5 8q-66 0 -112 4q-35 -31 -49 -63q-19 -41 -19 -96z M305 643q0 -129 55.5 -196.5t153.5 -67.5q68 0 111 55t43 164q0 55 -13.5 103.5t-40 84t-63.5 57t-86 21.5q-41 0 -70.5 -18.5t-50 -49t-30 -70.5t-9.5 -83z" />
<glyph unicode="h" horiz-adv-x="1218" d="M72 1323q0 23 4 41t14 35q23 0 61.5 6t79.5 15.5t78 22.5t56 25q18 -6 31.5 -24.5t13.5 -57.5v-520q0 -25 -2 -55.5t-13 -65.5q6 10 12.5 23.5t18.5 30.5q16 25 45 50t66.5 47t84 36t101.5 14q57 0 110.5 -17.5t94.5 -56t64.5 -102t23.5 -158.5v-352q0 -106 29.5 -142 t91.5 -36q6 -18 8 -38.5t2 -49.5q-45 4 -102.5 5t-120.5 1t-130 -2t-114 -4q0 59 10 88q74 0 107.5 38t33.5 140v311q0 72 -14 120t-39.5 77t-60.5 41t-76 12t-82 -18.5t-73.5 -59.5t-54 -105.5t-21.5 -158.5v-219q0 -102 30.5 -140t110.5 -38q6 -18 8 -38.5t2 -49.5 q-43 2 -111.5 4t-132.5 2q-63 0 -130.5 -1t-112.5 -5q0 59 10 88q80 0 110.5 38t30.5 140v918q0 37 -4 63.5t-20.5 45t-47 27.5t-81.5 9z" />
<glyph unicode="i" horiz-adv-x="618" d="M74 811q0 23 4 41t14 35q23 0 62 6t79.5 15.5t77.5 22.5t56 25q18 -6 31.5 -24.5t13.5 -57.5v-614q0 -102 27.5 -140t92.5 -38q6 -23 8.5 -48.5t2.5 -39.5q-53 4 -112.5 5t-119.5 1q-59 0 -121.5 -1t-113.5 -5q0 20 2 43.5t8 44.5q82 0 111.5 38t29.5 140v406 q0 37 -4 63.5t-20.5 45t-47 27.5t-81.5 9zM182 1307q0 55 37 90t84 35q55 0 89 -35t34 -90q0 -47 -36 -83t-87 -36q-53 0 -87 35t-34 84z" />
<glyph unicode="j" horiz-adv-x="579" d="M27 -453q61 70 100 129.5t61.5 116.5t30.5 119.5t8 140.5v613q0 37 -4 63.5t-20.5 45t-47 27.5t-81.5 9q0 23 4 41t14 35q23 0 62 6t79.5 15.5t77.5 22.5t56 25q18 -6 31.5 -24.5t13.5 -57.5v-827q0 -104 -32 -192t-81 -159t-109.5 -123t-117.5 -83q-16 8 -28.5 22.5 t-16.5 34.5zM182 1307q0 55 37 90t84 35q55 0 89 -35t34 -90q0 -47 -36 -83t-87 -36q-53 0 -87 35t-34 84z" />
<glyph unicode="k" horiz-adv-x="1116" d="M72 1323q0 23 4 41t14 35q23 0 61.5 6t79.5 15.5t78 22.5t56 25q18 -6 31.5 -24.5t13.5 -57.5v-851l137 127q70 63 100.5 102t30.5 61q0 33 -60 33q-12 39 -12 84q66 -4 119 -4h180q51 0 107 4q0 -20 -3 -44t-12 -42q-59 -2 -116.5 -28.5t-132.5 -96.5l-179 -162 q16 -20 35 -41q37 -39 76 -86l84 -102l98 -123q35 -43 59.5 -68.5t47 -38t47 -16.5t59.5 -6q0 -59 -10 -88q-74 0 -134.5 -4t-127.5 -14q-27 43 -77 110l-111 144q-60 76 -123 147q-43 51 -82 92v-215q0 -102 27.5 -140t92.5 -38q6 -23 8.5 -48.5t2.5 -39.5q-53 4 -112.5 5 t-119.5 1q-59 0 -121.5 -1t-113.5 -5q0 20 2 43.5t8 44.5q82 0 111.5 38t29.5 140v918q0 37 -4 63.5t-20.5 45t-47 27.5t-81.5 9z" />
<glyph unicode="l" horiz-adv-x="614" d="M72 1323q0 23 4 41t14 35q23 0 61.5 6t79.5 15.5t78 22.5t56 25q18 -6 31.5 -24.5t13.5 -57.5v-1126q0 -102 27.5 -140t92.5 -38q6 -23 8.5 -48.5t2.5 -39.5q-53 4 -112.5 5t-119.5 1q-59 0 -121.5 -1t-113.5 -5q0 20 2 43.5t8 44.5q82 0 111.5 38t29.5 140v918 q0 37 -4 63.5t-20.5 45t-47 27.5t-81.5 9z" />
<glyph unicode="m" horiz-adv-x="1810" d="M74 811q0 23 4 41t14 35q27 2 64 8t74.5 16.5t71.5 21.5t54 23q18 -6 31.5 -24.5t13.5 -57.5q0 -35 -4 -77q0 -20 -4 -52l13 29q14 27 20 35q16 25 44 50.5t64.5 47t84 35.5t100.5 14q86 0 157.5 -38.5t104.5 -133.5q6 -20 8 -51q6 18 12 31q10 18 23 35q16 25 44 50 t65.5 47t84 36t99.5 14q57 0 109.5 -17.5t92.5 -56t63.5 -102t23.5 -158.5v-352q0 -53 7 -87t22.5 -53.5t39 -27.5t54.5 -10q6 -18 8 -38.5t2 -49.5q-47 4 -104.5 5t-118.5 1t-127 -1t-117 -5q0 59 10 88q82 4 111.5 40t29.5 138v311q0 72 -14 120t-38.5 77t-59.5 41t-76 12 q-39 0 -80 -18.5t-73.5 -59.5t-53 -105.5t-20.5 -158.5v-219q0 -53 8 -87t24.5 -53.5t44 -27.5t66.5 -10q6 -18 8 -38.5t2 -49.5q-53 4 -118.5 5t-124.5 1t-124 -1t-120 -5q0 59 10 88q82 4 111.5 40t29.5 138v322q0 72 -14 120t-38.5 76.5t-59.5 40.5t-76 12q-39 0 -80 -18 t-73.5 -59t-53 -105.5t-20.5 -159.5v-229q0 -102 30.5 -138t112.5 -40q6 -18 8 -38.5t2 -49.5q-53 4 -121.5 5t-122.5 1q-53 0 -123.5 -1t-119.5 -5q0 59 10 88q82 4 111.5 40t29.5 138v406q0 37 -5 63.5t-21.5 44t-46 26.5t-80.5 11z" />
<glyph unicode="n" horiz-adv-x="1220" d="M74 811q0 23 4 41t14 35q31 2 69 9t75.5 16.5t71.5 20.5t59 23q18 -6 31.5 -25.5t13.5 -64.5q0 -25 -2 -55.5t-13 -65.5q6 10 12.5 23.5t18.5 30.5q16 25 45 50t67 47t84 36t101 14q57 0 110.5 -17.5t94.5 -56t64.5 -102t23.5 -158.5v-352q0 -106 29.5 -142t91.5 -36 q6 -18 8 -38.5t2 -49.5q-45 4 -102.5 5t-120.5 1t-130 -2t-114 -4q0 59 10 88q74 0 108 38t34 140v311q0 72 -14.5 120t-40 77t-60.5 41t-76 12t-82 -18.5t-73.5 -59.5t-54 -105.5t-21.5 -158.5v-219q0 -102 30.5 -140t110.5 -38q6 -18 8 -38.5t2 -49.5q-43 2 -111.5 4 t-132.5 2q-63 0 -130.5 -1t-112.5 -5q0 59 10 88q80 0 110.5 38t30.5 140v406q0 37 -5 63.5t-21.5 44t-46 26.5t-80.5 11z" />
<glyph unicode="o" horiz-adv-x="1089" d="M82 469q0 104 34 193.5t95 155t146 102t188 36.5q109 0 194.5 -34.5t145 -99t91.5 -154.5t32 -199q0 -104 -34 -194.5t-94.5 -155t-145.5 -101t-189 -36.5t-190.5 34.5t-147 98t-93 153.5t-32.5 201zM289 512q0 -209 73.5 -320.5t198.5 -111.5q123 0 182.5 101.5 t59.5 262.5q0 94 -22.5 171t-60.5 131.5t-88 83t-108 28.5q-119 0 -177 -96t-58 -250z" />
<glyph unicode="p" horiz-adv-x="1171" d="M72 811q0 23 4 41t14 35q31 2 69 9t75.5 16.5t71.5 20.5t59 23q18 -6 31.5 -25.5t13.5 -64.5q0 -47 -15 -90l-20 -63l20 41l31 51q14 23 40 49.5t62.5 49t81.5 37.5t97 15q180 0 281.5 -106.5t101.5 -329.5q0 -115 -37 -213t-103.5 -171t-161 -113.5t-208.5 -40.5 q-59 0 -103 10q-31 8 -67 16v-227q2 -59 13 -95t33.5 -57.5t55.5 -31t80 -11.5q10 -29 10 -88q-47 4 -116.5 5t-141.5 1h-76q-39 0 -75.5 -1t-67.5 -2t-51 -3q0 59 10 88q82 4 111.5 40t29.5 138v902q0 37 -5 63.5t-21.5 44t-46 26.5t-80.5 11zM410 147q29 -25 59 -43 q49 -29 121 -28q43 0 94 16.5t96 61.5t76 121.5t31 199.5q0 162 -65.5 257t-164.5 95q-45 0 -89 -20.5t-79.5 -67.5t-58.5 -123q-18 -63 -20 -149v-320z" />
<glyph unicode="q" horiz-adv-x="1118" d="M82 438q0 104 36 198.5t101.5 165t157.5 112.5t205 42q141 0 240.5 -36.5t164.5 -100.5q-20 -31 -30.5 -81t-10.5 -142v-832q0 -102 30 -138t111 -40q6 -18 8.5 -38.5t2.5 -49.5q-18 2 -48 3t-65 2t-72 1h-69q-66 0 -133.5 -1t-120.5 -5q0 59 10 88q49 2 80 11.5t49.5 29 t25.5 53t7 84.5v277q0 51 8 102q6 39 16 95l-16 -41q-18 -43 -37 -68q-20 -27 -51 -50.5t-66.5 -42t-75.5 -28.5t-81 -10q-74 0 -142.5 27.5t-121 83t-83 137t-30.5 192.5zM285 465q0 -96 22.5 -161.5t58 -105.5t81 -57.5t88.5 -17.5q35 0 74.5 17.5t73.5 59.5t56 109 q18 59 23 144v338q-23 25 -72 48t-100 23q-135 0 -220 -102t-85 -295z" />
<glyph unicode="r" horiz-adv-x="858" d="M74 811q0 23 4 41t14 35q31 2 69 9t75.5 16.5t71.5 20.5t59 23q18 -6 31.5 -25.5t13.5 -64.5q0 -72 -13 -127l-18 -84q12 31 18 56q12 37 29 61q45 72 106.5 119t141.5 47q41 0 74.5 -12.5t66.5 -36.5q-8 -51 -11 -120t-3 -122q-18 -6 -50 -12t-67 -6q-4 98 -31.5 128.5 t-68.5 30.5q-27 0 -57.5 -22.5t-56.5 -62t-44 -93.5q-14 -45 -16 -92v-217q0 -68 10 -108.5t32.5 -65.5t56.5 -34t83 -11q10 -29 10 -88q-47 4 -116.5 5t-141.5 1h-76q-39 0 -75.5 -1t-67.5 -2t-51 -3q0 59 10 88q82 4 111.5 40t29.5 138v406q0 37 -5 63.5t-21.5 44 t-46 26.5t-80.5 11z" />
<glyph unicode="s" horiz-adv-x="876" d="M82 57q2 25 4 57.5t2 68.5t-1 70t-3 58q16 12 46 17.5t60 5.5q16 -129 80 -192.5t170 -63.5q84 0 130 37t46 94q0 27 -9 48.5t-33.5 40.5t-67.5 40.5t-111 50.5q-84 33 -141 62.5t-93 64.5t-52.5 79t-16.5 105q0 66 34 114t85 80t110.5 47t110.5 15q92 0 162 -18t133 -53 q-4 -49 -4 -104.5t8 -108.5q-41 -25 -102 -25q-4 43 -21.5 83t-47.5 72t-70.5 51t-90.5 19q-63 0 -101 -30.5t-38 -81.5q0 -27 7 -47.5t33 -42t74 -45t130 -56.5q82 -31 138 -61.5t90 -65t48.5 -75.5t14.5 -97q0 -66 -29 -119t-79 -90.5t-118.5 -58t-148.5 -20.5 q-61 0 -108.5 5t-87.5 14t-73.5 23.5t-68.5 32.5z" />
<glyph unicode="t" horiz-adv-x="718" d="M41 827q0 27 4 46.5t14 44.5h129v270q41 10 82 32.5t72 49.5q10 -4 16.5 -9.5t10.5 -16.5t5 -29.5t1 -51.5v-245h264q0 -45 -18 -91q-150 -6 -246 -26v-512q0 -104 30.5 -150.5t86.5 -46.5q43 0 74.5 12.5t60.5 36.5q27 -31 30 -67q-35 -39 -100 -65.5t-131 -26.5 q-123 0 -180.5 61t-57.5 203v555q-31 10 -63.5 16t-83.5 10z" />
<glyph unicode="u" horiz-adv-x="1153" d="M31 811q0 23 2 40t12 36q31 2 66.5 9t70.5 16.5t67 20.5t56 23q18 -6 31.5 -25.5t13.5 -64.5v-465q0 -156 41 -220t144 -64q41 0 81.5 20.5t72.5 63.5t51.5 109.5t19.5 156.5v209q0 37 -5 63.5t-21.5 44t-46.5 26.5t-81 11q0 23 2 40.5t13 35.5q80 4 155.5 20.5 t122.5 38.5q18 -6 31.5 -25.5t13.5 -64.5v-587q0 -37 4 -64t18.5 -44t41 -26.5t73.5 -11.5q0 -23 -2 -44t-10 -44q-23 0 -57.5 -5t-70.5 -13.5t-67.5 -20.5t-50.5 -24q-18 6 -34.5 26.5t-16.5 73.5q0 41 4 82v18q-20 -45 -61 -86q-104 -104 -248 -104q-72 0 -128 18.5 t-95 60.5t-58.5 111.5t-19.5 173.5v310q0 37 -3 63.5t-17.5 44t-41 26.5t-73.5 11z" />
<glyph unicode="v" horiz-adv-x="1114" d="M47 944q86 -6 215 -6q66 0 134.5 1t117.5 5q0 -23 -4 -44t-10 -40q-51 -4 -81 -11t-40 -22.5t-4 -41t24 -66.5l42 -94l62 -142l68 -159l50 -119l79 211l76 198q37 95 37 149q0 22 -6 37q-20 52 -98 58q-23 41 -23 86q41 -4 92 -5t99 -1q47 0 100 1t90 5q0 -51 -18 -88 q-25 -6 -44.5 -18.5t-38 -38t-38 -65.5t-43.5 -101l-275 -651q-25 0 -50 4t-44 14l-38 88l-58 133l-70 154l-69 150l-59 125l-36 77q-20 41 -34.5 65.5t-27.5 38t-28.5 18.5t-36.5 7q-8 27 -10 43t-2 45z" />
<glyph unicode="w" horiz-adv-x="1585" d="M31 942q41 -2 87 -3t113 -1q68 0 120 1t106 5q0 -20 -2 -47t-9 -43q-86 -10 -98 -38q-4 -10 -4 -23q0 -25 14 -62l101 -262l84 -225l264 702q20 0 42.5 -2t39.5 -6l70 -162l78 -183l81 -194l64 -157l110 348q25 74 29 123q1 12 1 23q0 33 -9 56q-12 30 -39 44t-64 18 q-18 43 -18 90q39 -4 88 -5t94 -1q109 0 180 6q0 -51 -16 -90q-23 -6 -40 -19.5t-33.5 -41t-35 -74.5t-43.5 -123l-206 -614q-29 0 -52.5 4t-42.5 14l-73 179l-80 188l-82 186l-51 119l-269 -690q-35 0 -54 4t-36 14l-135 367l-147 366q-23 57 -46.5 82t-68.5 39 q-8 20 -10 45t-2 43z" />
<glyph unicode="x" horiz-adv-x="1067" d="M61 -4q0 23 2.5 46.5t10.5 39.5q27 2 52.5 10t52 28.5t56 55.5t68.5 88l141 199l-75 106l-78 109l-72 93q-29 36 -49 54.5t-37.5 25.5t-42.5 9q-14 31 -14 82q45 -2 100 -3t115 -1h121q61 0 114 4q0 -20 -3 -42.5t-7 -39.5q-72 -4 -84 -34q-2 -5 -2 -10q0 -33 55 -107 l45 -62l48 -65l81 127q49 76 50 109q0 37 -72 42q-8 18 -10 39t-2 43q39 -2 79.5 -3t102.5 -1q61 0 100 1t72 3q0 -23 -4 -44t-8 -38q-23 -2 -42.5 -7t-39 -20.5t-43 -42t-54.5 -71.5l-151 -215l88 -119l96 -135q33 -49 57.5 -81t44 -51.5t37 -27.5t37.5 -8q8 -20 9.5 -39.5 t1.5 -46.5q-63 4 -113 4h-217q-61 0 -121 -4q0 27 1 47t7 39q72 2 86 29q3 6 4 14q0 28 -37 84l-61 90q-27 43 -57 84l-84 -125q-55 -79 -55 -121q0 -8 1 -14q12 -41 72 -41q6 -16 9 -40t3 -46q-57 4 -120 4h-160q-42 0 -105 -4z" />
<glyph unicode="y" horiz-adv-x="1128" d="M41 942q59 -2 118.5 -3t112.5 -1h131l74 2q37 2 68 2q0 -53 -15 -88q-55 -10 -85.5 -24.5t-41.5 -39.5q-5 -13 -5 -29.5t5 -35.5q10 -39 39 -96l47 -104l55 -121q28 -62 52 -123q16 -39 29 -74l20 47l141 356q27 66 32 109q2 13 2 24q0 27 -9 47q-12 28 -42 42t-75 22 q-14 41 -14 88q47 -4 96 -4h213q51 0 98 4q0 -20 -1 -42.5t-11 -45.5q-29 -6 -49 -18.5t-37.5 -36t-36 -62.5l-43.5 -96l-301 -717q-59 -139 -104 -225t-85 -132t-80 -61.5t-87 -15.5q-61 0 -97 15.5t-57 31.5q-7 25 -6 59v18q2 46 8 73q70 -12 131 -13q59 0 112.5 28 t94.5 93q14 20 36 64.5t48 105.5q6 10 10 21l-63 141l-78 176l-75 164l-62 135q-37 76 -62.5 123t-48 73.5t-43 38t-47.5 17.5q-12 37 -12 88z" />
<glyph unicode="z" horiz-adv-x="1026" d="M104 78l84 118l104 144l110 156l107 151l89 131q29 41 47 70h-188q-55 0 -92 -8.5t-63 -33t-42 -66.5t-31 -109q-25 0 -54.5 3t-51.5 13q6 68 10 143.5t4 153.5q31 -2 76 -3t96 -2t103 -1h196q51 0 100.5 1t92.5 2t73 3q14 -16 20.5 -40.5t6.5 -47.5l-82 -117l-98 -137 l-107 -147l-106 -147l-98 -134l-62 -82h260q55 0 91 8.5t58.5 32t34 68.5t17.5 118q25 0 51.5 -2t57.5 -10q0 -25 1 -60.5t3 -73.5t5 -75t7 -63q-8 -16 -24.5 -27.5t-41.5 -11.5q-39 0 -75.5 1t-79.5 2t-95 1h-116q-135 0 -222 -1t-143 -3q-14 14 -23.5 35.5t-9.5 46.5z" />
<glyph unicode="{" horiz-adv-x="720" d="M72 467q0 18 1 32.5t9 32.5q59 20 97 48t59.5 64t29.5 77t8 86q0 74 -12 155.5t-12 161.5q0 59 12 115.5t47 108t96.5 94.5t159.5 76q18 -29 19 -56q-104 -35 -140 -101.5t-36 -150.5q0 -47 7 -96l15 -100l17 -101q8 -49 8 -96q0 -53 -10.5 -101t-39 -89t-80 -73 t-130.5 -50q80 -20 130 -53t79.5 -76t41 -93.5t11.5 -105.5q0 -100 -20.5 -205.5t-20.5 -201.5q0 -45 8 -85t28.5 -75t55.5 -61.5t88 -43.5q0 -20 -1 -33.5t-11 -25.5q-104 33 -169 79t-101.5 101.5t-49 117.5t-12.5 128q0 78 9 153.5t9 147.5q0 49 -8 94t-29.5 83t-61.5 68 t-101 50z" />
<glyph unicode="|" horiz-adv-x="358" d="M127 -471v1929q31 0 55.5 -4t46.5 -18v-195q0 -109 -1 -232.5t-1 -258.5v-543q0 -135 1 -261t1 -237v-203q-23 0 -55.5 6.5t-46.5 16.5z" />
<glyph unicode="}" horiz-adv-x="677" d="M68 -496q106 33 143 103.5t37 161.5q0 96 -20.5 201.5t-20.5 205.5q0 55 11 105.5t41 93.5t80 75.5t130 53.5q-80 18 -131 50t-80 73t-39 89t-10 101q0 47 8 96l16 101l16 100q7 49 7 96q0 84 -36 150.5t-140 101.5q0 27 18 56q98 -33 159.5 -76t96.5 -94.5t47.5 -107.5 t12.5 -116q0 -80 -12.5 -161.5t-12.5 -155.5q0 -45 8.5 -86t30 -77t59 -63.5t97.5 -48.5q8 -18 9 -32.5t1 -32.5q-61 -20 -101 -50t-61.5 -68t-30 -83t-8.5 -94q0 -72 9.5 -147.5t9.5 -153.5q0 -66 -12.5 -128t-49.5 -117.5t-101.5 -101.5t-168.5 -79q-10 12 -11 25.5 t-1 33.5z" />
<glyph unicode="~" horiz-adv-x="1198" d="M86 489q84 113 160 155t147 42q57 0 112.5 -18.5t110 -40t109.5 -40t111 -18.5q51 0 103 20.5t108 72.5q23 -2 36 -7.5t29 -19.5q-86 -111 -159.5 -152t-139.5 -41q-55 0 -107.5 19.5t-104.5 44t-105.5 44t-110.5 19.5q-59 0 -121.5 -28.5t-134.5 -104.5q-37 16 -43 53z " />
<glyph unicode="&#xa1;" horiz-adv-x="841" d="M256 838q0 61 37 89.5t84 28.5q55 0 86 -30.5t31 -77.5t-35 -82t-90 -35q-53 0 -83 36t-30 71zM260 -432q10 94 20.5 206.5t19.5 232.5l17.5 242t12.5 236q25 0 49 -1t43 -9q8 -141 17.5 -262l18.5 -229.5t20 -209t26 -202.5q-20 -4 -49 -12l-59 -18q-30 -9 -56.5 -19 t-42.5 -19q-43 15 -37 64z" />
<glyph unicode="&#xa2;" horiz-adv-x="927" d="M82 465q0 92 27.5 180t82 157.5t132.5 110.5q63 33 141 41v299q31 0 55.5 -4t46.5 -18v-164q0 -53 -2 -113q154 -12 252 -90q-10 -59 -12 -116.5t-2 -116.5q-16 -10 -44 -13.5t-50 -3.5q-12 119 -70 183q-33 35 -74 51v-750q137 0 228 119q16 -8 30.5 -23.5t20.5 -33.5 q-55 -88 -137 -133q-61 -33 -142 -41v-97q2 -84 2 -178q-23 0 -55.5 6.5t-46.5 16.5v250q-57 6 -113 28q-76 31 -136 91.5t-97 150.5t-37 211zM272 496q0 -78 19.5 -150t56.5 -127t90 -88q12 -8 27 -14v741q-84 -10 -135 -92q-58 -94 -58 -270z" />
<glyph unicode="&#xa3;" horiz-adv-x="1228" d="M156 45q57 55 103 105.5t78 102.5t48 109.5t16 124.5q0 57 -14 105h-76q-80 0 -139 -2q0 33 5 51t18 43h159l-20 49q-25 57 -46.5 123t-21.5 156q0 74 24.5 144.5t73 125.5t120 88t163.5 33q111 0 179.5 -17.5t136.5 -54.5q-6 -63 -4 -127.5t6 -142.5 q-29 -14 -56.5 -17.5t-54.5 -1.5q-10 141 -65.5 203t-165.5 62q-78 0 -131.5 -61.5t-53.5 -160.5q0 -74 21.5 -127t48.5 -102t47 -102q14 -33 18 -70h242q0 -31 -5 -50.5t-15 -41.5q-68 2 -129 2h-91q-6 -102 -47 -195.5t-125 -199.5l35 22q35 23 67 35t61.5 16t62.5 4 q55 0 100 -16t83 -37l70 -37q32 -16 60 -16q16 0 36.5 8t41.5 27q43 -6 78 -41q-51 -39 -104.5 -91.5t-80.5 -90.5q-68 0 -114 22q-35 14 -60.5 33.5t-56.5 37t-70 30t-100 12.5q-80 0 -148.5 -32t-138.5 -101q-42 16 -69 61z" />
<glyph unicode="&#xa4;" d="M137 852q14 14 32.5 25.5t47.5 13.5l92 -92q45 37 103 57q68 27 141 27q74 0 139 -27q49 -20 90 -51l92 94q27 -6 43.5 -15.5t32.5 -27.5l-108 -108q29 -35 47 -78q29 -66 29 -144q0 -96 -37 -166q-20 -39 -45 -71l135 -131q-12 -16 -31.5 -27.5t-50.5 -13.5l-117 112 q-45 -35 -98 -53q-63 -23 -121 -22q-84 0 -154 30q-35 16 -67 37l-101 -102q-31 2 -47 9t-34 28l118 125q-39 47 -63 104q-27 68 -27 141q0 80 31 146q16 37 39 67zM293 541q0 -53 20.5 -106.5t57.5 -96.5t87 -69.5t107 -26.5q109 0 174.5 72.5t65.5 195.5q0 53 -20.5 105.5 t-56.5 93.5t-86 66.5t-107 25.5q-109 0 -175.5 -71.5t-66.5 -188.5z" />
<glyph unicode="&#xa5;" horiz-adv-x="1290" d="M51 1389q43 -2 98.5 -3.5t114.5 -1.5h142q39 0 73.5 1t59.5 4q0 -23 -2 -40.5t-9 -39.5q-80 -8 -91 -41t36 -113l131 -231q59 -106 111 -209l102 192l115 207q57 100 41.5 139t-96.5 52q-6 23 -10.5 42t-4.5 42q37 -4 94 -5h107q47 0 94 1t82 4q0 -41 -8 -80 q-29 -8 -51.5 -21.5t-47 -38t-51 -63.5t-59.5 -99l-176 -313h250q0 -31 -6.5 -52.5t-16.5 -43.5h-282l-41 -74v-86h342q0 -57 -25 -96h-317v-88q0 -82 5 -129t21.5 -71.5t47 -35t83.5 -16.5q12 -37 13 -88l-136 4q-68 2 -125 2h-73q-39 0 -78 -1t-73 -2t-54 -1q0 23 3 45 t9 41q55 4 87 13t49.5 32t22.5 66t5 114v115h-342q0 23 6 49.5t17 46.5l319 2v82l-45 76h-279q0 51 21 96h203l-242 410l-36 55q-15 23 -31.5 37t-36 20.5t-48.5 8.5q-8 23 -10 42t-2 42z" />
<glyph unicode="&#xa6;" horiz-adv-x="370" d="M127 354q31 0 55.5 -4t46.5 -18q0 -33 -1 -82t-1 -104.5t-1 -112t-1 -101.5q0 -39 1 -92t1 -111.5t1 -115.5t1 -107q-23 0 -55.5 6.5t-46.5 16.5v825zM127 696v762q31 0 55.5 -4t46.5 -18q0 -66 -2 -164t-2 -203q0 -45 1 -101.5t1 -111.5t1 -104.5t1 -77.5q-23 0 -55.5 6 t-46.5 16z" />
<glyph unicode="&#xa7;" horiz-adv-x="1081" d="M125 494q0 61 17.5 116.5t50 102.5t79.5 80q37 27 84 45q-4 4 -8 6q-57 47 -89 97t-42 102.5t-10 105.5q0 61 22.5 117.5t64.5 99.5t100.5 69.5t131.5 26.5q102 0 167 -26.5t106 -59.5q-4 -53 -4 -116.5t6 -122.5q-27 -8 -50.5 -12.5t-54.5 -4.5q-12 76 -29.5 124t-39 76 t-48 38t-57.5 10q-41 0 -73.5 -14.5t-56 -39t-36 -55t-12.5 -61.5q0 -37 7 -67.5t32 -60.5t72 -60.5t125 -65.5q104 -47 174.5 -91t115.5 -94t64.5 -111.5t19.5 -143.5q0 -66 -20.5 -126.5t-60 -110.5t-97.5 -87q-41 -25 -88 -41q59 -45 96 -92q37 -49 52.5 -102.5 t15.5 -116.5q0 -66 -18.5 -124t-58.5 -103t-102.5 -71t-150.5 -26q-63 0 -110 9.5t-82 25t-61.5 33.5t-47.5 37q4 72 4 140.5t-6 135.5q23 6 51.5 9.5t53.5 3.5q8 -94 27.5 -152.5t47 -91.5t62.5 -44t74 -11q84 0 131 44t47 121q0 43 -9.5 76t-37 65t-81 65.5t-141.5 78.5 q-90 45 -150.5 92t-98 99.5t-54 114t-16.5 139.5zM260 545q0 -43 11.5 -82t41 -77t80.5 -76t133 -77l43 -22q59 8 103 25q53 23 84.5 54.5t45 70t13.5 77.5q0 41 -11 79t-45 76t-96.5 78t-162.5 85q-20 8 -37 16q-96 -18 -148 -74q-55 -61 -55 -153z" />
<glyph unicode="&#xa8;" d="M297 1194q0 45 26.5 81t86.5 36q61 0 88.5 -33t27.5 -80t-32.5 -77.5t-79.5 -30.5q-53 0 -85 29.5t-32 74.5zM694 1206q0 49 32 77t83 28t84 -29t33 -76q0 -43 -24.5 -78.5t-86.5 -35.5q-59 0 -90 31.5t-31 82.5z" />
<glyph unicode="&#xa9;" horiz-adv-x="1540" d="M72 471q0 147 54 274t148.5 221.5t221.5 148.5t274 54q145 0 273 -54t222.5 -148.5t148.5 -221.5t54 -274q0 -145 -54 -273t-148.5 -222.5t-222.5 -148.5t-273 -54q-147 0 -275 54t-222.5 147.5t-147.5 221.5t-53 275zM160 471q0 -129 47 -240.5t129 -193.5t193.5 -128 t240.5 -46t240.5 47t193.5 129t129 192.5t47 239.5t-47 240.5t-129 193.5t-193.5 129t-240.5 47t-239.5 -47t-193.5 -129t-130 -193.5t-47 -240.5zM352 467q0 104 32 189t90 145.5t138 93.5t176 33q94 0 159 -21.5t136 -66.5q-10 -55 -12 -109.5t-2 -109.5q-14 -8 -41 -11.5 t-47 -3.5q-4 41 -15.5 82t-38 74t-68.5 53.5t-107 20.5q-59 0 -99.5 -28t-65 -75t-35.5 -110.5t-11 -133.5q0 -72 14 -138t47 -118.5t83 -84t122 -31.5q59 0 123.5 21.5t122.5 82.5q23 -20 34 -49q-53 -78 -134 -120t-199 -42q-74 0 -146.5 29t-129 86t-91.5 142t-35 200z " />
<glyph unicode="&#xaa;" horiz-adv-x="851" d="M102 909q0 63 33 108.5t90.5 76t134 50t162.5 32.5q0 82 -7 113.5t-28 53.5q-35 45 -94 46q-33 0 -55.5 -16.5t-36.5 -43t-21.5 -57.5t-9.5 -62q-27 0 -58.5 3.5t-51.5 11.5q4 41 2 87t-10 81q63 35 136.5 55t153.5 20q74 0 120 -16t77 -49q18 -18 31.5 -40t20.5 -51.5 t11.5 -68.5t4.5 -94v-150q0 -78 16 -102.5t68 -24.5q0 -23 -2.5 -46t-10.5 -44q-53 -4 -105 -17t-91 -30q-20 6 -33.5 23.5t-13.5 52.5q0 23 3 40t5 32q-8 -23 -22.5 -46.5t-39.5 -45.5q-29 -23 -68.5 -38.5t-95.5 -15.5q-109 0 -162 44t-53 128zM293 944q0 -53 24.5 -74.5 t57.5 -21.5q25 0 50.5 11t47 36t35.5 63.5t14 94.5v47q-43 -6 -84 -15.5t-73.5 -26t-52 -44t-19.5 -70.5z" />
<glyph unicode="&#xab;" horiz-adv-x="1032" d="M111 492q0 33 12 69l159 146l146 147q45 -6 72 -33l-57 -70l-58 -76l-54 -73l-44 -61q45 -80 95 -156t103 -145q-6 -47 -41 -70l-172 169zM477 492q0 23 4 40t8 27l132 146l120 141q43 -4 70 -31q-98 -139 -176 -268q39 -78 83 -158l85 -151q-12 -41 -47 -58l-76 89 l-68 77l-65 72z" />
<glyph unicode="&#xac;" horiz-adv-x="1099" d="M53 606q0 23 5 56.5t16 48.5h932v-473q-47 -29 -107 -29v399h-375q-223 2 -471 -2z" />
<glyph unicode="&#xad;" horiz-adv-x="858" d="M735 612q0 -33 -6 -68.5t-20 -64.5q-55 0 -135 -1l-160 -2l-159 -2q-77 -1 -132 -3q0 35 9 75t24 66h579z" />
<glyph unicode="&#xae;" horiz-adv-x="1013" d="M123 1018q0 80 29.5 150.5t82 122.5t122 82t149.5 30q82 0 152.5 -30t121.5 -82t81 -122.5t30 -150.5q0 -82 -30 -151.5t-81 -121t-121.5 -81t-152.5 -29.5q-80 0 -149.5 29.5t-122 81t-82 121t-29.5 151.5zM190 1018q0 -68 25 -125t67 -99t99 -67t125 -25q70 0 128 25 t100 67t65.5 99t23.5 125t-23.5 126t-65.5 100t-100.5 66.5t-127.5 24.5q-68 0 -125 -24.5t-99 -66.5t-67 -100t-25 -126zM336 1214v19h190q80 0 115 -29.5t35 -77.5q0 -29 -15.5 -51t-37 -38.5t-45.5 -24.5q-8 -4 -17 -6l33 -41q14 -18 37 -52q29 -41 44 -52t44 -11v-21 q0 -8 -4 -16q-23 0 -51.5 -1t-49.5 -5q-31 55 -59.5 98t-67.5 88q-6 2 -16 2v-73q0 -41 8 -55.5t33 -18.5q4 -10 5 -18.5t1 -18.5q-23 2 -47 2h-78q-18 0 -53 -2v16q0 10 4 21q31 4 40 17.5t9 56.5v204q0 47 -9 59.5t-44 12.5q-4 8 -4 16zM471 1028q63 2 95 17.5t32 60.5 q0 39 -21.5 65.5t-76.5 26.5h-15q-4 0 -14 -4v-166z" />
<glyph unicode="&#xaf;" d="M178 1198q0 12 4 44t15 50h727q0 -43 -19 -88h-92q-68 0 -165 -1t-218 -2t-252 -3z" />
<glyph unicode="&#xb0;" horiz-adv-x="786" d="M123 1184q0 53 19.5 98t55 79t84 53.5t107.5 19.5q133 0 204 -71t71 -177q0 -53 -19.5 -100.5t-55.5 -82t-87 -54t-113 -19.5q-127 0 -196.5 71.5t-69.5 182.5zM266 1223q0 -96 46 -153.5t106 -57.5q43 0 72.5 36.5t29.5 114.5q0 90 -39 141.5t-104 51.5q-47 0 -79 -40 t-32 -93z" />
<glyph unicode="&#xb1;" d="M74 166q0 23 5 54.5t15 45.5h932q0 -31 -3 -53.5t-17 -44.5q-86 0 -139.5 1t-96.5 1h-328q-59 0 -117 -1l-120 -2q-61 -1 -131 -1zM172 641q0 23 5 54.5t16 45.5h321v93q0 41 -1 92t-1 123q23 14 46.5 17t53.5 3v-328h349q0 -31 -3.5 -53t-17.5 -45q-53 0 -92 1t-78 1 t-86 -2h-72v-289q-14 -10 -47 -15t-55 -5q0 61 1 107t2 86t1 77v39h-108q-97 0 -234 -2z" />
<glyph unicode="&#xb2;" horiz-adv-x="757" d="M82 801l125 115l96 85q72 66 104.5 121.5t32.5 130.5q0 57 -30.5 92t-73.5 35q-51 0 -72.5 -45t-36.5 -157q-23 0 -51.5 2t-48.5 10q4 49 4 106.5t-6 104.5q63 37 120.5 52t141.5 15q37 0 76 -9t70.5 -31.5t52 -58.5t20.5 -87q0 -80 -31.5 -133t-97.5 -113l-83 -74 l-97 -85h164q49 0 78.5 24.5t33.5 89.5q23 0 41.5 -2t34.5 -6q0 -53 3 -103.5t14 -105.5q-8 -16 -23.5 -28.5t-42.5 -12.5q-47 0 -117.5 2t-144.5 2q-76 0 -139.5 -2t-98.5 -2q-10 16 -14 34t-4 34z" />
<glyph unicode="&#x2072;" horiz-adv-x="757" d="M82 801l125 115l96 85q72 66 104.5 121.5t32.5 130.5q0 57 -30.5 92t-73.5 35q-51 0 -72.5 -45t-36.5 -157q-23 0 -51.5 2t-48.5 10q4 49 4 106.5t-6 104.5q63 37 120.5 52t141.5 15q37 0 76 -9t70.5 -31.5t52 -58.5t20.5 -87q0 -80 -31.5 -133t-97.5 -113l-83 -74 l-97 -85h164q49 0 78.5 24.5t33.5 89.5q23 0 41.5 -2t34.5 -6q0 -53 3 -103.5t14 -105.5q-8 -16 -23.5 -28.5t-42.5 -12.5q-47 0 -117.5 2t-144.5 2q-76 0 -139.5 -2t-98.5 -2q-10 16 -14 34t-4 34z" />
<glyph unicode="&#xb3;" horiz-adv-x="755" d="M72 567q10 20 20 32.5t27 23.5q14 -12 52 -25.5t97 -13.5q37 0 76 14t72 43t53 71t20 97q0 78 -45 132t-137 54q-16 0 -25.5 -1t-19.5 -5q-12 10 -21.5 21.5t-13.5 31.5l141 177l95 122h-127q-35 0 -56.5 -5t-37 -18t-28.5 -38t-28 -61q-18 0 -39.5 4t-35.5 14 q8 63 11 120.5t3 108.5q35 -2 96 -2h303q57 0 86 2q10 -18 13.5 -33.5t3.5 -37.5q-51 -55 -115 -133l-129 -164q53 4 103.5 -11.5t90 -50.5t63.5 -87t24 -120t-27 -127t-76 -103t-120.5 -70.5t-159.5 -26.5q-92 0 -142.5 25.5t-66.5 39.5z" />
<glyph unicode="&#x2073;" horiz-adv-x="755" d="M72 567q10 20 20 32.5t27 23.5q14 -12 52 -25.5t97 -13.5q37 0 76 14t72 43t53 71t20 97q0 78 -45 132t-137 54q-16 0 -25.5 -1t-19.5 -5q-12 10 -21.5 21.5t-13.5 31.5l141 177l95 122h-127q-35 0 -56.5 -5t-37 -18t-28.5 -38t-28 -61q-18 0 -39.5 4t-35.5 14 q8 63 11 120.5t3 108.5q35 -2 96 -2h303q57 0 86 2q10 -18 13.5 -33.5t3.5 -37.5q-51 -55 -115 -133l-129 -164q53 4 103.5 -11.5t90 -50.5t63.5 -87t24 -120t-27 -127t-76 -103t-120.5 -70.5t-159.5 -26.5q-92 0 -142.5 25.5t-66.5 39.5z" />
<glyph unicode="&#xb4;" d="M459 1100q49 102 80.5 188t52.5 164q45 16 83 21.5t68 3.5q18 -2 34 -6.5t26 -8.5q-68 -78 -139.5 -179t-131.5 -196q-18 -2 -37.5 1.5t-35.5 11.5z" />
<glyph unicode="&#xb5;" horiz-adv-x="1153" d="M72 811q0 23 2 40t12 36q31 2 66.5 9t70.5 16.5t67 20.5t56 23q18 -6 31.5 -25.5t13.5 -64.5v-465q0 -156 41 -220t143 -64q41 0 82 20.5t73 63.5t51.5 109.5t19.5 156.5v209q0 37 -5 63.5t-21.5 44t-46.5 26.5t-81 11q0 23 2 40.5t13 35.5q80 4 155.5 20.5t122.5 38.5 q18 -6 31.5 -25.5t13.5 -64.5v-594q0 -33 4 -57q4 -27 18.5 -44t41 -26.5t73.5 -11.5q0 -23 -2 -44t-10 -44q-23 0 -57.5 -5t-70.5 -13.5t-67.5 -20.5t-50.5 -24q-18 6 -34.5 26.5t-16.5 73.5q0 41 4 82v18q-20 -45 -61 -86q-104 -104 -248 -104q-72 0 -129 18l-33 13v-105 q0 -92 7 -152.5t22 -107.5q-25 -18 -43.5 -34.5t-33.5 -34l-32 -38.5l-37 -47q-16 6 -26 19.5t-15 25.5q4 45 11.5 103.5t7.5 173.5v840q0 37 -3 63.5t-17.5 44t-41 26.5t-73.5 11z" />
<glyph unicode="&#xb6;" d="M74 1010q0 80 28.5 149.5t91 120.5t160 80t234.5 29q96 0 166.5 -2.5t144.5 -2.5h80q45 0 88 5q0 -23 -2 -43.5t-10 -42.5q-45 -2 -73 -12.5t-42 -32t-18 -54.5t-4 -78v-1636q-53 0 -103 21v1792q-49 6 -88 8h-37v-1821q-29 0 -53.5 3t-48.5 15v1143q-10 -2 -21 -2 q-20 -2 -47 -2q-104 0 -186 18.5t-140.5 60.5t-89 112t-30.5 172zM260 1016q0 -76 23.5 -130.5t63.5 -90t92.5 -52t109.5 -16.5h39v586q-80 -2 -137 -15q-68 -14 -111 -47.5t-61.5 -91t-18.5 -143.5z" />
<glyph unicode="&#xb7;" horiz-adv-x="479" d="M123 557q0 55 32.5 87t77.5 32q49 0 86 -31t37 -78q0 -39 -25.5 -77.5t-88.5 -38.5q-59 0 -89 29.5t-30 76.5z" />
<glyph unicode="&#xb8;" d="M459 -129l102 162h103l-99 -135q82 -14 130 -63.5t48 -123.5q0 -51 -25.5 -90t-65.5 -64.5t-86 -39t-85 -13.5q-8 14 -11 32t-3 34q61 0 111.5 29.5t50.5 83.5q0 51 -38 80.5t-95 29.5q-16 12 -26.5 31.5t-10.5 46.5z" />
<glyph unicode="&#xb9;" horiz-adv-x="626" d="M109 731q0 23 2 43.5t6 40.5q61 0 86.5 29.5t25.5 95.5v313q0 61 -25.5 92t-86.5 31q-8 35 -8 86q16 -2 42.5 -3t56.5 -2t58 -1h49q39 0 100.5 1t102.5 5q0 -51 -8 -86q-61 0 -87 -30.5t-26 -92.5v-313q0 -66 26 -95.5t87 -29.5q8 -39 8 -84q-47 4 -101.5 5t-101.5 1 t-102 -1t-104 -5z" />
<glyph unicode="&#x2071;" horiz-adv-x="626" d="M109 731q0 23 2 43.5t6 40.5q61 0 86.5 29.5t25.5 95.5v313q0 61 -25.5 92t-86.5 31q-8 35 -8 86q16 -2 42.5 -3t56.5 -2t58 -1h49q39 0 100.5 1t102.5 5q0 -51 -8 -86q-61 0 -87 -30.5t-26 -92.5v-313q0 -66 26 -95.5t87 -29.5q8 -39 8 -84q-47 4 -101.5 5t-101.5 1 t-102 -1t-104 -5z" />
<glyph unicode="&#xba;" horiz-adv-x="856" d="M82 1096q0 84 26.5 152.5t72.5 117.5t110.5 75.5t138.5 26.5q170 0 258 -101t88 -263q0 -84 -24.5 -152.5t-70.5 -118t-110.5 -76t-144.5 -26.5q-162 0 -253 99.5t-91 265.5zM270 1135q0 -150 46 -235t128 -85q72 0 110 71.5t38 188.5q0 147 -52.5 229t-125.5 82 q-72 0 -108 -70t-36 -181z" />
<glyph unicode="&#xbb;" horiz-adv-x="1064" d="M154 819q33 29 79 29l125 -135l134 -131q10 -27 10 -64l-136 -164l-133 -168q-18 10 -31.5 25.5t-23.5 32.5l80 129l80 137l-39 70l-47 79l-50 83zM475 827q35 29 76 29q74 -72 149 -138l158 -134q8 -16 10 -31.5t2 -34.5l-162 -169l-157 -171q-33 20 -47 60l98 132 t94 140l-47 70l-56 84l-61 85z" />
<glyph unicode="&#xbc;" horiz-adv-x="1593" d="M209 1194q0 84 -31 113.5t-125 29.5q0 18 3 43t14 45q76 10 145.5 27.5t124.5 40.5q23 -8 32 -25.5t9 -64.5v-531q0 -66 7 -107.5t22.5 -65t39 -33t54.5 -11.5q4 -16 6 -38.5t2 -47.5q-23 2 -87.5 4t-135.5 2q-78 0 -134.5 -2t-88.5 -4q0 53 8 86q33 2 58.5 10.5t43 30 t25.5 60.5t8 102v336zM334 -16q-29 10 -50.5 24.5t-31.5 28.5l1048 1425q23 -6 45.5 -21.5t36.5 -31.5zM1366 391h96q47 0 66 -20q-14 -29 -23.5 -57.5t-13.5 -69.5h-125v-17q0 -47 5 -74.5t17.5 -42t32 -18.5t47.5 -6q4 -12 7.5 -41t3.5 -51q-18 0 -44 1t-55 3l-57 2h-109 l-61 -2q-31 -2 -56.5 -3t-39.5 -1q0 23 2 52.5t6 39.5q35 2 60.5 7t42 20.5t23.5 42t7 71.5v15q-66 -2 -119 -2q-76 -2 -132 -5.5t-101 -7.5q-37 41 -37 101l109 137l119 152l119 160l112 159q53 0 98 -23v-522zM1198 391v301l-221 -301h221z" />
<glyph unicode="&#xbd;" horiz-adv-x="1796" d="M209 1194q0 84 -31 113.5t-125 29.5q0 18 3 43t14 45q76 10 145.5 27.5t124.5 40.5q23 -8 32 -25.5t9 -64.5v-531q0 -66 7 -107.5t22.5 -65t39 -33t54.5 -11.5q4 -16 6 -38.5t2 -47.5q-23 2 -87.5 4t-135.5 2q-78 0 -134.5 -2t-88.5 -4q0 53 8 86q33 2 58.5 10.5t43 30 t25.5 60.5t8 102v336zM314 -16q-29 10 -50.5 24.5t-31.5 28.5l1048 1425q23 -6 45.5 -21.5t36.5 -31.5zM1357 920q59 0 111.5 -12.5t92.5 -39t63.5 -67.5t23.5 -99q0 -86 -47 -155.5t-125 -140.5q-66 -61 -119 -117l-118 -129h252q49 0 78.5 19.5t29.5 74.5q25 2 48.5 0 t41.5 -10q-2 -57 1 -113.5t14 -99.5q-10 -18 -33 -25.5t-70 -7.5q-23 0 -80 1t-110 1q-92 0 -177 -1t-176 -1q-10 10 -14 26.5t-4 32.5l70 78l67 74l187 192q55 59 80.5 121t25.5 148q0 72 -36 122t-113 50q-72 0 -103 -45t-45 -142q-59 0 -100 15q6 41 6 85t-8 99 q124 66 286 66z" />
<glyph unicode="&#xbe;" horiz-adv-x="1697" d="M397 1483q98 0 159.5 2t90.5 2q27 -31 27 -74l-124 -132l-136 -148q53 0 106 -14.5t96 -45.5t70 -79t27 -113q0 -74 -30 -134.5t-82 -101.5t-126 -63.5t-162 -22.5q-98 0 -156.5 24.5t-80.5 45.5q-2 20 6 41.5t22 38.5q25 -16 73 -33t120 -17q96 0 158.5 43t62.5 136 q0 37 -15.5 65.5t-42 48t-59 29.5t-67.5 10q-18 0 -34.5 -2t-33.5 -8q-14 12 -25.5 35.5t-13.5 38.5l134 149q69 76 118 135h-153q-51 0 -81 -27.5t-59 -103.5q-23 0 -47 7.5t-41 17.5q12 53 16.5 127t2.5 127q41 -2 112.5 -3t167.5 -1zM396 -16q-29 10 -50.5 24.5 t-31.5 28.5l1048 1425q23 -6 45.5 -21.5t36.5 -31.5zM1464 391h96q47 0 66 -20q-14 -29 -23.5 -57.5t-13.5 -69.5h-125v-17q0 -47 5 -74.5t17.5 -42t32 -18.5t47.5 -6q4 -12 7.5 -41t3.5 -51q-18 0 -44 1t-55 3l-57 2h-109l-61 -2q-31 -2 -56.5 -3t-39.5 -1q0 23 2 52.5 t6 39.5q35 2 60.5 7t42 20.5t23.5 42t7 71.5v15q-66 -2 -119 -2q-76 -2 -132 -5.5t-101 -7.5q-37 41 -37 101l109 137l119 152l119 160l112 159q53 0 98 -23v-522zM1296 391v301l-221 -301h221z" />
<glyph unicode="&#xbf;" horiz-adv-x="1099" d="M184 -238q0 98 46 170t102.5 140.5t102.5 144.5t46 180q0 25 -6 67t-16 71q18 10 35.5 13t37.5 3q35 -23 65 -91.5t30 -154.5q0 -100 -41 -166.5t-89 -121t-89 -108.5t-41 -128q0 -43 13 -79t36.5 -61.5t53.5 -40t62 -14.5q78 0 121 60.5t60 199.5q29 0 62.5 -5t53.5 -15 q-6 -72 -7 -121t7 -115q-51 -31 -124.5 -58.5t-190.5 -27.5q-145 0 -237.5 65.5t-92.5 192.5zM395 831q0 66 39 95.5t88 29.5q59 0 91 -31.5t32 -80.5q0 -51 -36 -87t-95 -36q-55 0 -87 36.5t-32 73.5z" />
<glyph unicode="&#xc0;" horiz-adv-x="1441" d="M51 -6q0 20 3 43.5t12 42.5q27 6 47 18.5t38.5 37t35.5 64.5l42 101l424 1088q35 8 80 8l488 -1118q25 -57 44 -94.5t36.5 -59t35 -30.5t41.5 -13q8 -27 10.5 -45.5t2.5 -42.5q-16 0 -45 1t-64 3l-68 2h-57q-25 0 -58 -1l-67 -2q-33 -1 -62.5 -2t-43.5 -1q0 25 2 47 t12 41q43 4 66.5 12t32 25.5t2 46.5t-26.5 76l-90 209q-133 0 -281 -2q-141 -2 -262 -7l-53 -141q-34 -87 -34 -135q0 -19 5 -32q18 -46 102 -52q14 -35 15 -88q-35 4 -89.5 5t-105.5 1t-96 -2t-74 -4zM420 543h465l-156 364l-26 58l-22 54l-24 56q-8 25 -20 53 q-20 -68 -39 -116l-37 -103zM415 1882q41 20 93.5 22t103.5 -6q27 -88 61.5 -177t83.5 -181q-18 -10 -39.5 -9t-41.5 5q-72 111 -133.5 193.5t-127.5 152.5z" />
<glyph unicode="&#xc1;" horiz-adv-x="1441" d="M51 -6q0 20 3 43.5t12 42.5q27 6 47 18.5t38.5 37t35.5 64.5l42 101l424 1088q35 8 80 8l488 -1118q25 -57 44 -94.5t36.5 -59t35 -30.5t41.5 -13q8 -27 10.5 -45.5t2.5 -42.5q-16 0 -45 1t-64 3l-68 2h-57q-25 0 -58 -1l-67 -2q-33 -1 -62.5 -2t-43.5 -1q0 25 2 47 t12 41q43 4 66.5 12t32 25.5t2 46.5t-26.5 76l-90 209q-133 0 -281 -2q-141 -2 -262 -7l-53 -141q-34 -87 -34 -135q0 -19 5 -32q18 -46 102 -52q14 -35 15 -88q-35 4 -89.5 5t-105.5 1t-96 -2t-74 -4zM420 543h465l-156 364l-26 58l-22 54l-24 56q-8 25 -20 53 q-20 -68 -39 -116l-37 -103zM611 1540q49 102 80.5 188t52.5 164q45 16 83 21.5t68 3.5q18 -2 34 -6.5t26 -8.5q-68 -78 -139.5 -179t-131.5 -196q-18 -2 -37.5 1.5t-35.5 11.5z" />
<glyph unicode="&#xc2;" horiz-adv-x="1441" d="M51 -6q0 20 3 43.5t12 42.5q27 6 47 18.5t38.5 37t35.5 64.5l42 101l424 1088q35 8 80 8l488 -1118q25 -57 44 -94.5t36.5 -59t35 -30.5t41.5 -13q8 -27 10.5 -45.5t2.5 -42.5q-16 0 -45 1t-64 3l-68 2h-57q-25 0 -58 -1l-67 -2q-33 -1 -62.5 -2t-43.5 -1q0 25 2 47 t12 41q43 4 66.5 12t32 25.5t2 46.5t-26.5 76l-90 209q-133 0 -281 -2q-141 -2 -262 -7l-53 -141q-34 -87 -34 -135q0 -19 5 -32q18 -46 102 -52q14 -35 15 -88q-35 4 -89.5 5t-105.5 1t-96 -2t-74 -4zM420 543h465l-156 364l-26 58l-22 54l-24 56q-8 25 -20 53 q-20 -68 -39 -116l-37 -103zM349 1577q78 59 165 141t156 166q16 4 34.5 6t31.5 2q55 -76 131 -164t168 -180q-20 -27 -62 -37l-69 49l-74 54q-37 27 -74 50l-69 42q-25 -12 -67 -39l-89 -58l-91 -61l-69 -49q-14 14 -18 39t-4 39z" />
<glyph unicode="&#xc3;" horiz-adv-x="1441" d="M51 -6q0 20 3 43.5t12 42.5q27 6 47 18.5t38.5 37t35.5 64.5l42 101l424 1088q35 8 80 8l488 -1118q25 -57 44 -94.5t36.5 -59t35 -30.5t41.5 -13q8 -27 10.5 -45.5t2.5 -42.5q-16 0 -45 1t-64 3l-68 2h-57q-25 0 -58 -1l-67 -2q-33 -1 -62.5 -2t-43.5 -1q0 25 2 47 t12 41q43 4 66.5 12t32 25.5t2 46.5t-26.5 76l-90 209q-133 0 -281 -2q-141 -2 -262 -7l-53 -141q-34 -87 -34 -135q0 -19 5 -32q18 -46 102 -52q14 -35 15 -88q-35 4 -89.5 5t-105.5 1t-96 -2t-74 -4zM420 543h465l-156 364l-26 58l-22 54l-24 56q-8 25 -20 53 q-20 -68 -39 -116l-37 -103zM391 1538q61 109 116.5 147.5t106.5 38.5q37 0 71 -13.5t67.5 -28.5l66.5 -28.5t68 -13.5q31 0 61.5 14.5t63.5 49.5q8 0 19 -3.5t19 -13.5q-53 -115 -102 -155.5t-96 -40.5q-35 0 -69 13t-68.5 30.5t-70.5 31t-75 13.5q-37 0 -76 -17.5 t-82 -62.5q-20 12 -20 39z" />
<glyph unicode="&#xc4;" horiz-adv-x="1441" d="M51 -6q0 20 3 43.5t12 42.5q27 6 47 18.5t38.5 37t35.5 64.5l42 101l424 1088q35 8 80 8l488 -1118q25 -57 44 -94.5t36.5 -59t35 -30.5t41.5 -13q8 -27 10.5 -45.5t2.5 -42.5q-16 0 -45 1t-64 3l-68 2h-57q-25 0 -58 -1l-67 -2q-33 -1 -62.5 -2t-43.5 -1q0 25 2 47 t12 41q43 4 66.5 12t32 25.5t2 46.5t-26.5 76l-90 209q-133 0 -281 -2q-141 -2 -262 -7l-53 -141q-34 -87 -34 -135q0 -19 5 -32q18 -46 102 -52q14 -35 15 -88q-35 4 -89.5 5t-105.5 1t-96 -2t-74 -4zM420 543h465l-156 364l-26 58l-22 54l-24 56q-8 25 -20 53 q-20 -68 -39 -116l-37 -103zM387 1634q0 45 26.5 81t86.5 36q61 0 88.5 -33t27.5 -80t-32.5 -77.5t-79.5 -30.5q-53 0 -85 29.5t-32 74.5zM784 1646q0 49 32 77t83 28t84 -29t33 -76q0 -43 -24.5 -78.5t-86.5 -35.5q-59 0 -90 31.5t-31 82.5z" />
<glyph unicode="&#xc5;" horiz-adv-x="1441" d="M51 -6q0 20 3 43.5t12 42.5q27 6 47 18.5t38.5 37t35.5 64.5l42 101l424 1088q35 8 80 8l488 -1118q25 -57 44 -94.5t36.5 -59t35 -30.5t41.5 -13q8 -27 10.5 -45.5t2.5 -42.5q-16 0 -45 1t-64 3l-68 2h-57q-25 0 -58 -1l-67 -2q-33 -1 -62.5 -2t-43.5 -1q0 25 2 47 t12 41q43 4 66.5 12t32 25.5t2 46.5t-26.5 76l-90 209q-133 0 -281 -2q-141 -2 -262 -7l-53 -141q-34 -87 -34 -135q0 -19 5 -32q18 -46 102 -52q14 -35 15 -88q-35 4 -89.5 5t-105.5 1t-96 -2t-74 -4zM420 543h465l-156 364l-26 58l-22 54l-24 56q-8 25 -20 53 q-20 -68 -39 -116l-37 -103zM481 1697q0 82 61.5 137.5t151.5 55.5q37 0 73.5 -10t64.5 -33t45.5 -56.5t17.5 -78.5q0 -84 -61.5 -139.5t-153.5 -55.5q-39 0 -75 12.5t-63.5 36t-44 57t-16.5 74.5zM594 1706q0 -47 27.5 -80t78.5 -33q33 0 58.5 25.5t25.5 72.5 q0 43 -25.5 86t-78.5 43q-39 0 -62.5 -30.5t-23.5 -83.5z" />
<glyph unicode="&#xc6;" horiz-adv-x="1957" d="M127 -6q0 20 3 43.5t11 42.5q25 2 47.5 12t47 35t55.5 69t71 115l480 828q47 80 27.5 115.5t-117.5 45.5q-8 18 -10.5 42t-2.5 47q39 0 85 -1l91 -3q45 -1 84 -1h492q160 2 254 5q2 -35 7 -77l10 -85q5 -43 11.5 -85t14.5 -75q-16 -14 -40 -19.5t-52 -5.5 q-4 47 -19.5 94.5t-53.5 84t-101.5 59.5t-161.5 23h-148v-605h105q123 0 165 43t42 121q31 8 51 11.5t49 3.5q0 -16 -1 -43t-2 -59t-1 -66v-121q0 -33 1 -66t2 -61.5t1 -44.5q-29 0 -50.5 1t-43.5 9q-4 39 -13.5 72.5t-33 58.5t-66.5 39t-117 14h-88v-327q0 -66 10.5 -104 t29 -57.5t44.5 -25.5q16 -2 35 -4h78q96 0 155.5 16.5t97.5 49t60.5 81t44.5 111.5q31 -10 51.5 -20.5t39.5 -28.5q-23 -72 -38.5 -152.5t-25.5 -152.5q-63 0 -139 1t-154 3h-409q-117 -2 -218 -4q0 23 2.5 46.5t12.5 39.5q39 6 64.5 15t40 31t20.5 58.5t6 96.5v327 q-84 0 -150 -2q-82 -2 -143 -4l-86 -4l-74 -133l-84 -150q-37 -68 -49 -111.5t-6 -69t29.5 -39t60.5 -19.5q14 -35 14 -84q-47 4 -105 5t-110 1q-51 0 -105 -1t-85 -5zM698 698h322v471q0 29 2 60q2 27 4 57l-16 -37q-12 -27 -29 -56l-41 -75l-125 -215z" />
<glyph unicode="&#xc7;" horiz-adv-x="1337" d="M72 702q0 176 58 307.5t153.5 219.5t218.5 131t254 43q129 0 234.5 -26.5t219.5 -80.5q-16 -72 -19 -151.5t-3 -165.5q-27 -10 -51.5 -14t-57.5 -4q-4 109 -26.5 178t-62.5 109t-95 55.5t-123 15.5q-129 0 -221 -47t-150.5 -126t-86 -180.5t-27.5 -207.5 q0 -137 35.5 -256t102.5 -207t164 -138.5t220 -50.5q98 0 200.5 33t188.5 88q12 -10 23.5 -29.5t13.5 -33.5q-61 -47 -119.5 -81t-120 -56.5t-129.5 -32.5q-57 -10 -125 -12l-61 -84q82 -14 130 -63.5t48 -123.5q0 -51 -25.5 -90t-65.5 -64.5t-86 -39t-85 -13.5 q-8 14 -11 32t-3 34q61 0 111 29.5t50 83.5q0 51 -37.5 80.5t-95.5 29.5q-16 12 -26.5 31.5t-10.5 46.5l72 115q-98 10 -186 47q-119 53 -205 148t-134 228t-48 293z" />
<glyph unicode="&#xc8;" horiz-adv-x="1196" d="M286 1882q41 20 93.5 22t103.5 -6q27 -88 61.5 -177t83.5 -181q-18 -10 -39.5 -9t-41.5 5q-72 111 -133.5 193.5t-127.5 152.5zM117 -6q0 59 10 88q41 2 68.5 11t44 31.5t23.5 60.5t7 98v841q0 102 -29.5 138t-111.5 41q-6 16 -8 39.5t-2 48.5q31 -2 78 -3l97 -3 q50 -1 95 -1h74q211 0 346 2.5t186 4.5q2 -35 7 -77l11 -86q5 -44 11 -86t14 -75q-16 -14 -39.5 -19.5t-52.5 -5.5q-4 47 -19.5 94.5t-53 84t-101 59.5t-162.5 23h-147v-562h86q63 0 106 7.5t70 26t39 51t12 81.5q27 8 48.5 11.5t49.5 3.5q-4 -53 -4 -113v-229q0 -66 4 -119 q-29 0 -50 2t-44 8q-4 53 -17 88t-40 56.5t-69 29.5t-105 8h-86v-370q0 -57 7 -94t27.5 -58.5t56.5 -30t93 -8.5h12q94 0 153.5 16.5t97.5 49t61.5 81t46.5 111.5q31 -10 51.5 -20.5t38.5 -28.5q-23 -72 -38 -152.5t-26 -152.5q-31 0 -74.5 1t-97 2t-110.5 1h-248 q-76 0 -150.5 -1t-141 -2t-105.5 -3z" />
<glyph unicode="&#xc9;" horiz-adv-x="1196" d="M563 1540q49 102 80.5 188t52.5 164q45 16 83 21.5t68 3.5q18 -2 34 -6.5t26 -8.5q-68 -78 -139.5 -179t-131.5 -196q-18 -2 -37.5 1.5t-35.5 11.5zM117 -6q0 59 10 88q41 2 68.5 11t44 31.5t23.5 60.5t7 98v841q0 102 -29.5 138t-111.5 41q-6 16 -8 39.5t-2 48.5 q31 -2 78 -3l97 -3q50 -1 95 -1h74q211 0 346 2.5t186 4.5q2 -35 7 -77l11 -86q5 -44 11 -86t14 -75q-16 -14 -39.5 -19.5t-52.5 -5.5q-4 47 -19.5 94.5t-53 84t-101 59.5t-162.5 23h-147v-562h86q63 0 106 7.5t70 26t39 51t12 81.5q27 8 48.5 11.5t49.5 3.5q-4 -53 -4 -113 v-229q0 -66 4 -119q-29 0 -50 2t-44 8q-4 53 -17 88t-40 56.5t-69 29.5t-105 8h-86v-370q0 -57 7 -94t27.5 -58.5t56.5 -30t93 -8.5h12q94 0 153.5 16.5t97.5 49t61.5 81t46.5 111.5q31 -10 51.5 -20.5t38.5 -28.5q-23 -72 -38 -152.5t-26 -152.5q-31 0 -74.5 1t-97 2 t-110.5 1h-248q-76 0 -150.5 -1t-141 -2t-105.5 -3z" />
<glyph unicode="&#xca;" horiz-adv-x="1196" d="M254 1577q78 59 165 141t156 166q16 4 34.5 6t31.5 2q55 -76 131 -164t168 -180q-20 -27 -62 -37l-69 49l-74 54q-37 27 -74 50l-69 42q-25 -12 -67 -39l-89 -58l-91 -61l-69 -49q-14 14 -18 39t-4 39zM117 -6q0 59 10 88q41 2 68.5 11t44 31.5t23.5 60.5t7 98v841 q0 102 -29.5 138t-111.5 41q-6 16 -8 39.5t-2 48.5q31 -2 78 -3l97 -3q50 -1 95 -1h74q211 0 346 2.5t186 4.5q2 -35 7 -77l11 -86q5 -44 11 -86t14 -75q-16 -14 -39.5 -19.5t-52.5 -5.5q-4 47 -19.5 94.5t-53 84t-101 59.5t-162.5 23h-147v-562h86q63 0 106 7.5t70 26 t39 51t12 81.5q27 8 48.5 11.5t49.5 3.5q-4 -53 -4 -113v-229q0 -66 4 -119q-29 0 -50 2t-44 8q-4 53 -17 88t-40 56.5t-69 29.5t-105 8h-86v-370q0 -57 7 -94t27.5 -58.5t56.5 -30t93 -8.5h12q94 0 153.5 16.5t97.5 49t61.5 81t46.5 111.5q31 -10 51.5 -20.5t38.5 -28.5 q-23 -72 -38 -152.5t-26 -152.5q-31 0 -74.5 1t-97 2t-110.5 1h-248q-76 0 -150.5 -1t-141 -2t-105.5 -3z" />
<glyph unicode="&#xcb;" horiz-adv-x="1196" d="M260 1634q0 45 26.5 81t86.5 36q61 0 88.5 -33t27.5 -80t-32.5 -77.5t-79.5 -30.5q-53 0 -85 29.5t-32 74.5zM657 1646q0 49 32 77t83 28t84 -29t33 -76q0 -43 -24.5 -78.5t-86.5 -35.5q-59 0 -90 31.5t-31 82.5zM117 -6q0 59 10 88q41 2 68.5 11t44 31.5t23.5 60.5t7 98 v841q0 102 -29.5 138t-111.5 41q-6 16 -8 39.5t-2 48.5q31 -2 78 -3l97 -3q50 -1 95 -1h74q211 0 346 2.5t186 4.5q2 -35 7 -77l11 -86q5 -44 11 -86t14 -75q-16 -14 -39.5 -19.5t-52.5 -5.5q-4 47 -19.5 94.5t-53 84t-101 59.5t-162.5 23h-147v-562h86q63 0 106 7.5t70 26 t39 51t12 81.5q27 8 48.5 11.5t49.5 3.5q-4 -53 -4 -113v-229q0 -66 4 -119q-29 0 -50 2t-44 8q-4 53 -17 88t-40 56.5t-69 29.5t-105 8h-86v-370q0 -57 7 -94t27.5 -58.5t56.5 -30t93 -8.5h12q94 0 153.5 16.5t97.5 49t61.5 81t46.5 111.5q31 -10 51.5 -20.5t38.5 -28.5 q-23 -72 -38 -152.5t-26 -152.5q-31 0 -74.5 1t-97 2t-110.5 1h-248q-76 0 -150.5 -1t-141 -2t-105.5 -3z" />
<glyph unicode="&#xcc;" horiz-adv-x="770" d="M160 -6q0 59 10 88q82 4 111.5 40t29.5 138v864q0 102 -29.5 138t-111.5 41q-10 29 -10 88q113 -6 248 -7q66 0 126 1t121 6q0 -59 -10 -88q-82 -4 -111.5 -40t-29.5 -139v-864q0 -102 29.5 -138t111.5 -40q10 -29 10 -88q-123 6 -247 6q-59 0 -127 -1t-121 -5zM116 1882 q41 20 93.5 22t103.5 -6q27 -88 61.5 -177t83.5 -181q-18 -10 -39.5 -9t-41.5 5q-72 111 -133.5 193.5t-127.5 152.5z" />
<glyph unicode="&#xcd;" horiz-adv-x="778" d="M117 -6q0 59 10 88q82 4 111.5 40t29.5 138v864q0 102 -29.5 138t-111.5 41q-10 29 -10 88q113 -6 248 -7q66 0 126 1t121 6q0 -59 -10 -88q-82 -4 -111.5 -40t-29.5 -139v-864q0 -102 29.5 -138t111.5 -40q10 -29 10 -88q-123 6 -247 6q-59 0 -127 -1t-121 -5zM322 1540 q49 102 80.5 188t52.5 164q45 16 83 21.5t68 3.5q18 -2 34 -6.5t26 -8.5q-68 -78 -139.5 -179t-131.5 -196q-18 -2 -37.5 1.5t-35.5 11.5z" />
<glyph unicode="&#xce;" horiz-adv-x="917" d="M193 -6q0 59 10 88q82 4 111.5 40t29.5 138v864q0 102 -29.5 138t-111.5 41q-10 29 -10 88q113 -6 248 -7q66 0 126 1t121 6q0 -59 -10 -88q-82 -4 -111.5 -40t-29.5 -139v-864q0 -102 29.5 -138t111.5 -40q10 -29 10 -88q-123 6 -247 6q-59 0 -127 -1t-121 -5zM109 1577 q78 59 165 141t156 166q16 4 34.5 6t31.5 2q55 -76 131 -164t168 -180q-20 -27 -62 -37l-69 49l-74 54q-37 27 -74 50l-69 42q-25 -12 -67 -39l-89 -58l-91 -61l-69 -49q-14 14 -18 39t-4 39z" />
<glyph unicode="&#xcf;" horiz-adv-x="860" d="M189 -6q0 59 10 88q82 4 111.5 40t29.5 138v864q0 102 -29.5 138t-111.5 41q-10 29 -10 88q113 -6 248 -7q66 0 126 1t121 6q0 -59 -10 -88q-82 -4 -111.5 -40t-29.5 -139v-864q0 -102 29.5 -138t111.5 -40q10 -29 10 -88q-123 6 -247 6q-59 0 -127 -1t-121 -5zM119 1634 q0 45 26.5 81t86.5 36q61 0 88.5 -33t27.5 -80t-32.5 -77.5t-79.5 -30.5q-53 0 -85 29.5t-32 74.5zM516 1646q0 49 32 77t83 28t84 -29t33 -76q0 -43 -24.5 -78.5t-86.5 -35.5q-59 0 -90 31.5t-31 82.5z" />
<glyph unicode="&#xd0;" horiz-adv-x="1488" d="M72 504q0 23 6 56.5t16 47.5h168v516q0 102 -29.5 138t-111.5 41q-6 16 -8 39.5t-2 48.5q20 -2 52 -3l66 -3q35 -1 72 -1h70q68 0 135 2.5t133 2.5q135 0 274.5 -25t251 -95.5t182 -200.5t70.5 -341q0 -166 -42 -284.5t-108.5 -198.5t-151.5 -129t-171 -74t-167 -33 t-138 -8h-133q-76 0 -150.5 -1t-141.5 -2t-105 -3q0 59 10 88q41 2 68.5 11t44 31.5t23.5 60.5t7 98v225h-74q-44 0 -116 -4zM455 283q0 -57 7 -94t27.5 -58.5t56.5 -30t93 -8.5q123 0 226.5 30t179 99.5t118.5 185t43 289.5q0 166 -50 283t-134 190.5t-192.5 107.5 t-223.5 34q-37 0 -81 -5.5t-70 -13.5v-684h366q0 -31 -4 -55.5t-18 -46.5q-53 0 -97.5 1t-87.5 1h-159v-225z" />
<glyph unicode="&#xd1;" horiz-adv-x="1552" d="M117 -6q0 27 2 48t8 40q41 0 68.5 14.5t44 49t22.5 93t6 144.5v846l-8 10q-29 37 -55.5 48t-77.5 16q-6 23 -8 47t-2 41q31 -4 71.5 -5.5t79.5 -1.5q82 0 138 7l796 -1057v678q0 84 -6 139t-22.5 89t-44 48.5t-68.5 14.5q-6 35 -8 52t-2 36q45 -4 97 -5.5t95 -1.5t98.5 1 t96.5 6q0 -20 -2 -43t-9 -45q-35 0 -57 -14.5t-36.5 -48.5t-20.5 -89t-6 -139v-1020q-16 -6 -39 -8t-45 -2l-850 1110v-709q0 -86 6 -144.5t22.5 -93t44 -49t68.5 -14.5q6 -18 8 -38.5t2 -49.5q-47 4 -102 5t-100 1t-105.5 -1t-99.5 -5zM463 1538q61 109 116.5 147.5 t106.5 38.5q37 0 71 -13.5t67.5 -28.5l66.5 -28.5t68 -13.5q31 0 61.5 14.5t63.5 49.5q8 0 19 -3.5t19 -13.5q-53 -115 -102 -155.5t-96 -40.5q-35 0 -69 13t-68.5 30.5t-70.5 31t-75 13.5q-37 0 -76 -17.5t-82 -62.5q-20 12 -20 39z" />
<glyph unicode="&#xd2;" horiz-adv-x="1497" d="M72 696q0 156 52 286t143 224t215 145.5t266 51.5q147 0 271 -51.5t214 -144.5t141 -223t51 -288q0 -152 -50 -281.5t-140 -226t-214 -151.5t-273 -55q-152 0 -277 54t-214 150.5t-137 226t-48 283.5zM283 752q0 -129 32.5 -250t97 -214t159 -149.5t216.5 -56.5 q100 0 179.5 44t134.5 120t83.5 178t28.5 219q0 137 -38.5 258t-106.5 211t-161 141.5t-203 51.5q-90 0 -168 -40t-134.5 -113t-88 -174t-31.5 -226zM462 1882q41 20 93.5 22t103.5 -6q27 -88 61.5 -177t83.5 -181q-18 -10 -39.5 -9t-41.5 5q-72 111 -133.5 193.5 t-127.5 152.5z" />
<glyph unicode="&#xd3;" horiz-adv-x="1497" d="M72 696q0 156 52 286t143 224t215 145.5t266 51.5q147 0 271 -51.5t214 -144.5t141 -223t51 -288q0 -152 -50 -281.5t-140 -226t-214 -151.5t-273 -55q-152 0 -277 54t-214 150.5t-137 226t-48 283.5zM283 752q0 -129 32.5 -250t97 -214t159 -149.5t216.5 -56.5 q100 0 179.5 44t134.5 120t83.5 178t28.5 219q0 137 -38.5 258t-106.5 211t-161 141.5t-203 51.5q-90 0 -168 -40t-134.5 -113t-88 -174t-31.5 -226zM697 1540q49 102 80.5 188t52.5 164q45 16 83 21.5t68 3.5q18 -2 34 -6.5t26 -8.5q-68 -78 -139.5 -179t-131.5 -196 q-18 -2 -37.5 1.5t-35.5 11.5z" />
<glyph unicode="&#xd4;" horiz-adv-x="1497" d="M72 696q0 156 52 286t143 224t215 145.5t266 51.5q147 0 271 -51.5t214 -144.5t141 -223t51 -288q0 -152 -50 -281.5t-140 -226t-214 -151.5t-273 -55q-152 0 -277 54t-214 150.5t-137 226t-48 283.5zM283 752q0 -129 32.5 -250t97 -214t159 -149.5t216.5 -56.5 q100 0 179.5 44t134.5 120t83.5 178t28.5 219q0 137 -38.5 258t-106.5 211t-161 141.5t-203 51.5q-90 0 -168 -40t-134.5 -113t-88 -174t-31.5 -226zM410 1577q78 59 165 141t156 166q16 4 34.5 6t31.5 2q55 -76 131 -164t168 -180q-20 -27 -62 -37l-69 49l-74 54 q-37 27 -74 50l-69 42q-25 -12 -67 -39l-89 -58l-91 -61l-69 -49q-14 14 -18 39t-4 39z" />
<glyph unicode="&#xd5;" horiz-adv-x="1497" d="M72 696q0 156 52 286t143 224t215 145.5t266 51.5q147 0 271 -51.5t214 -144.5t141 -223t51 -288q0 -152 -50 -281.5t-140 -226t-214 -151.5t-273 -55q-152 0 -277 54t-214 150.5t-137 226t-48 283.5zM283 752q0 -129 32.5 -250t97 -214t159 -149.5t216.5 -56.5 q100 0 179.5 44t134.5 120t83.5 178t28.5 219q0 137 -38.5 258t-106.5 211t-161 141.5t-203 51.5q-90 0 -168 -40t-134.5 -113t-88 -174t-31.5 -226zM432 1538q61 109 116.5 147.5t106.5 38.5q37 0 71 -13.5t67.5 -28.5l66.5 -28.5t68 -13.5q31 0 61.5 14.5t63.5 49.5 q8 0 19 -3.5t19 -13.5q-53 -115 -102 -155.5t-96 -40.5q-35 0 -69 13t-68.5 30.5t-70.5 31t-75 13.5q-37 0 -76 -17.5t-82 -62.5q-20 12 -20 39z" />
<glyph unicode="&#xd6;" horiz-adv-x="1497" d="M72 696q0 156 52 286t143 224t215 145.5t266 51.5q147 0 271 -51.5t214 -144.5t141 -223t51 -288q0 -152 -50 -281.5t-140 -226t-214 -151.5t-273 -55q-152 0 -277 54t-214 150.5t-137 226t-48 283.5zM283 752q0 -129 32.5 -250t97 -214t159 -149.5t216.5 -56.5 q100 0 179.5 44t134.5 120t83.5 178t28.5 219q0 137 -38.5 258t-106.5 211t-161 141.5t-203 51.5q-90 0 -168 -40t-134.5 -113t-88 -174t-31.5 -226zM434 1634q0 45 26.5 81t86.5 36q61 0 88.5 -33t27.5 -80t-32.5 -77.5t-79.5 -30.5q-53 0 -85 29.5t-32 74.5zM831 1646 q0 49 32 77t83 28t84 -29t33 -76q0 -43 -24.5 -78.5t-86.5 -35.5q-59 0 -90 31.5t-31 82.5z" />
<glyph unicode="&#xd7;" horiz-adv-x="1267" d="M82 913q18 23 45 36.5t61 13.5l437 -412l411 436q33 -8 54.5 -20.5t42.5 -34.5l-196 -203l-237 -250l482 -448q-37 -49 -113 -49l-440 419l-174 -184l-217 -235q-33 0 -64 8t-49 30l426 453z" />
<glyph unicode="&#xd8;" horiz-adv-x="1497" d="M72 696q0 156 52 286t143 224t215 145.5t266 51.5q147 0 270 -51q61 -25 112 -60l107 144q31 0 57.5 -6.5t46.5 -26.5l-131 -174l23 -23q90 -92 141 -222t51 -288q0 -152 -50 -281.5t-140 -226t-214 -151.5t-273 -55q-152 0 -277 53q-74 33 -135 78l-135 -172 q-29 0 -54.5 13t-35.5 32l153 192l-8 8q-88 96 -136 226t-48 284zM283 752q0 -129 32 -250q27 -96 72 -176l639 835q-53 55 -119 92q-92 51 -202 52q-90 0 -168 -40t-134.5 -113t-88 -174t-31.5 -226zM446 244q53 -63 125 -107q94 -55 217 -55q100 0 179.5 44t134.5 120 t83.5 178t28.5 219q0 137 -38 258q-33 102 -86 182z" />
<glyph unicode="&#xd9;" horiz-adv-x="1443" d="M117 1391q41 -4 107.5 -5.5t129.5 -1.5t127 1t111 6q0 -20 -2 -43t-8 -45q-45 -4 -73 -11.5t-43 -26t-20.5 -52t-5.5 -89.5v-622q0 -86 16.5 -162t56.5 -131t106.5 -87t168.5 -32q51 0 113 17.5t105 60.5q25 25 41 53.5t26 71.5t15.5 101.5t5.5 140.5v507q0 74 -5.5 122 t-20.5 78t-43 43t-73 18q-6 31 -8 48t-2 40q35 -4 90 -5.5t103 -1.5q47 0 100 1t94 6q0 -14 -2 -34t-8 -54q-35 -4 -58.5 -17.5t-38 -42.5t-19.5 -78t-5 -123v-491q0 -88 -5 -156.5t-18.5 -123t-36 -96.5t-57.5 -77q-59 -59 -143 -87.5t-188 -28.5q-143 0 -239.5 31.5 t-155 94t-83 154.5t-24.5 211v651q0 55 -5 88t-18.5 51.5t-37 26.5t-60.5 13q-6 23 -8 45.5t-2 42.5zM466 1882q41 20 93.5 22t103.5 -6q27 -88 61.5 -177t83.5 -181q-18 -10 -39.5 -9t-41.5 5q-72 111 -133.5 193.5t-127.5 152.5z" />
<glyph unicode="&#xda;" horiz-adv-x="1443" d="M117 1391q41 -4 107.5 -5.5t129.5 -1.5t127 1t111 6q0 -20 -2 -43t-8 -45q-45 -4 -73 -11.5t-43 -26t-20.5 -52t-5.5 -89.5v-622q0 -86 16.5 -162t56.5 -131t106.5 -87t168.5 -32q51 0 113 17.5t105 60.5q25 25 41 53.5t26 71.5t15.5 101.5t5.5 140.5v507q0 74 -5.5 122 t-20.5 78t-43 43t-73 18q-6 31 -8 48t-2 40q35 -4 90 -5.5t103 -1.5q47 0 100 1t94 6q0 -14 -2 -34t-8 -54q-35 -4 -58.5 -17.5t-38 -42.5t-19.5 -78t-5 -123v-491q0 -88 -5 -156.5t-18.5 -123t-36 -96.5t-57.5 -77q-59 -59 -143 -87.5t-188 -28.5q-143 0 -239.5 31.5 t-155 94t-83 154.5t-24.5 211v651q0 55 -5 88t-18.5 51.5t-37 26.5t-60.5 13q-6 23 -8 45.5t-2 42.5zM754 1540q49 102 80.5 188t52.5 164q45 16 83 21.5t68 3.5q18 -2 34 -6.5t26 -8.5q-68 -78 -139.5 -179t-131.5 -196q-18 -2 -37.5 1.5t-35.5 11.5z" />
<glyph unicode="&#xdb;" horiz-adv-x="1443" d="M117 1391q41 -4 107.5 -5.5t129.5 -1.5t127 1t111 6q0 -20 -2 -43t-8 -45q-45 -4 -73 -11.5t-43 -26t-20.5 -52t-5.5 -89.5v-622q0 -86 16.5 -162t56.5 -131t106.5 -87t168.5 -32q51 0 113 17.5t105 60.5q25 25 41 53.5t26 71.5t15.5 101.5t5.5 140.5v507q0 74 -5.5 122 t-20.5 78t-43 43t-73 18q-6 31 -8 48t-2 40q35 -4 90 -5.5t103 -1.5q47 0 100 1t94 6q0 -14 -2 -34t-8 -54q-35 -4 -58.5 -17.5t-38 -42.5t-19.5 -78t-5 -123v-491q0 -88 -5 -156.5t-18.5 -123t-36 -96.5t-57.5 -77q-59 -59 -143 -87.5t-188 -28.5q-143 0 -239.5 31.5 t-155 94t-83 154.5t-24.5 211v651q0 55 -5 88t-18.5 51.5t-37 26.5t-60.5 13q-6 23 -8 45.5t-2 42.5zM424 1577q78 59 165 141t156 166q16 4 34.5 6t31.5 2q55 -76 131 -164t168 -180q-20 -27 -62 -37l-69 49l-74 54q-37 27 -74 50l-69 42q-25 -12 -67 -39l-89 -58l-91 -61 l-69 -49q-14 14 -18 39t-4 39z" />
<glyph unicode="&#xdc;" horiz-adv-x="1443" d="M117 1391q41 -4 107.5 -5.5t129.5 -1.5t127 1t111 6q0 -20 -2 -43t-8 -45q-45 -4 -73 -11.5t-43 -26t-20.5 -52t-5.5 -89.5v-622q0 -86 16.5 -162t56.5 -131t106.5 -87t168.5 -32q51 0 113 17.5t105 60.5q25 25 41 53.5t26 71.5t15.5 101.5t5.5 140.5v507q0 74 -5.5 122 t-20.5 78t-43 43t-73 18q-6 31 -8 48t-2 40q35 -4 90 -5.5t103 -1.5q47 0 100 1t94 6q0 -14 -2 -34t-8 -54q-35 -4 -58.5 -17.5t-38 -42.5t-19.5 -78t-5 -123v-491q0 -88 -5 -156.5t-18.5 -123t-36 -96.5t-57.5 -77q-59 -59 -143 -87.5t-188 -28.5q-143 0 -239.5 31.5 t-155 94t-83 154.5t-24.5 211v651q0 55 -5 88t-18.5 51.5t-37 26.5t-60.5 13q-6 23 -8 45.5t-2 42.5zM461 1634q0 45 26.5 81t86.5 36q61 0 88.5 -33t27.5 -80t-32.5 -77.5t-79.5 -30.5q-53 0 -85 29.5t-32 74.5zM858 1646q0 49 32 77t83 28t84 -29t33 -76 q0 -43 -24.5 -78.5t-86.5 -35.5q-59 0 -90 31.5t-31 82.5z" />
<glyph unicode="&#xdd;" horiz-adv-x="1290" d="M51 1389q43 -2 98.5 -3.5t114.5 -1.5h142q39 0 73.5 1t59.5 4q0 -23 -2 -40.5t-9 -39.5q-80 -8 -91 -41q-2 -6 -2 -15q0 -34 38 -98l131 -231q59 -106 111 -209l102 192l115 207q45 79 45 120q0 11 -3 19q-15 39 -97 52q-6 23 -10.5 42t-4.5 42q37 -4 94 -5h107 q47 0 94 1t82 4q0 -41 -8 -80q-29 -8 -51.5 -21.5t-47 -38t-51 -63.5t-59.5 -99l-272 -483v-270q0 -82 5 -129t21.5 -71.5t47 -35t83.5 -16.5q12 -37 13 -88l-136 4q-68 2 -125 2h-73q-39 0 -78 -1t-73 -2t-54 -1q0 23 3 45t9 41q55 4 87 13t49.5 32t22.5 66t5 114v295 l-342 582l-36 55q-15 23 -31.5 37t-36 20.5t-48.5 8.5q-8 23 -10 42t-2 42zM654 1540q49 102 80.5 188t52.5 164q45 16 83 21.5t68 3.5q18 -2 34 -6.5t26 -8.5q-68 -78 -139.5 -179t-131.5 -196q-18 -2 -37.5 1.5t-35.5 11.5z" />
<glyph unicode="&#xde;" horiz-adv-x="1241" d="M115 -6q0 59 10 88q82 4 111.5 40t29.5 138v864q0 102 -29.5 138t-111.5 41q-10 29 -10 88q113 -6 247 -7q66 0 126.5 1t121.5 6q0 -59 -10 -88q-82 -4 -111.5 -40t-29.5 -139v-22q23 2 47 2q47 0 96 1t92 1q113 0 195 -29.5t135 -82t78.5 -122t25.5 -147.5 q0 -74 -28.5 -147.5t-87 -133t-145.5 -97.5t-203 -38q-43 0 -79 5t-65 16q-4 16 -3 34.5t5 32.5q27 -6 53.5 -8t59.5 -2q57 0 110.5 12.5t95.5 46t67.5 90t25.5 146.5q0 76 -20.5 139.5t-63.5 109.5t-108.5 71.5t-157.5 25.5q-35 0 -64 -4q-23 -2 -61 -10v-754 q0 -102 29.5 -138t111.5 -40q10 -29 10 -88q-123 6 -248 6q-59 0 -126.5 -1t-120.5 -5z" />
<glyph unicode="&#xdf;" horiz-adv-x="1210" d="M74 827q0 18 6 44t22 47h136v81q0 119 40.5 207t105.5 145.5t142.5 85t149.5 27.5q74 0 130 -22.5t94 -61.5t56.5 -88t18.5 -104q0 -63 -17.5 -107.5t-43 -78t-56.5 -59t-56.5 -50.5t-43 -51.5t-17.5 -61.5q0 -53 30 -88t75 -63.5t96 -56t96 -66.5t75 -94.5t30 -139.5 q0 -57 -24.5 -108t-66.5 -91t-97.5 -63.5t-114.5 -23.5q-47 0 -83 4t-67 13t-57.5 24.5t-54.5 35.5q4 47 5 106.5t-3 113.5q14 10 42.5 16t53.5 6q12 -133 49 -190.5t127 -57.5q53 0 93 48.5t40 125.5q0 55 -29.5 93t-75.5 67t-98.5 55.5t-98.5 60.5t-75.5 81t-29.5 119 q0 57 20 97t51 71.5t66 56t65.5 52.5t51 61.5t20.5 80.5q0 45 -18.5 86t-51 72t-78 49.5t-96.5 18.5q-47 0 -81.5 -13.5t-58.5 -46t-35 -89t-11 -140.5v-1067q-27 2 -65 3t-91 1t-100 -1t-80 -5q0 59 10 88q82 4 112 40t30 138v543q-25 10 -76 17t-88 7z" />
<glyph unicode="&#xe0;" horiz-adv-x="989" d="M102 203q0 100 58.5 162.5t141.5 100.5t172 55.5t153 27.5q0 63 -2 104t-6.5 69t-13.5 46t-21 35q-49 61 -131 61q-47 0 -80 -24.5t-54.5 -60.5t-30.5 -76.5t-12 -75.5q-23 0 -56.5 3t-49.5 11q3 34 3 73q0 20 -1 41q-2 62 -12 109q82 41 172 66.5t186 25.5 q70 0 119 -21.5t88 -57.5q27 -27 43 -58t25.5 -72.5t13.5 -95t4 -127.5v-219q0 -98 21.5 -131t95.5 -33q0 -23 -3 -50.5t-12 -45.5q-53 -8 -113.5 -25.5t-103.5 -37.5q-20 8 -35.5 30.5t-15.5 69.5q0 31 2 51.5t2 34.5q-8 -27 -23.5 -53.5t-52.5 -59.5q-35 -31 -85 -50 t-119 -19q-133 0 -200 57.5t-67 159.5zM301 244q0 -76 37 -111t84 -35q33 0 68.5 16.5t66.5 51.5t50.5 89t19.5 132v78q-53 -6 -110.5 -17.5t-104.5 -34t-79 -62t-32 -107.5zM235 1442q41 20 93.5 22t103.5 -6q27 -88 61.5 -177t83.5 -181q-18 -10 -39.5 -9t-41.5 5 q-72 111 -133.5 193.5t-127.5 152.5z" />
<glyph unicode="&#xe1;" horiz-adv-x="989" d="M102 203q0 100 58.5 162.5t141.5 100.5t172 55.5t153 27.5q0 63 -2 104t-6.5 69t-13.5 46t-21 35q-49 61 -131 61q-47 0 -80 -24.5t-54.5 -60.5t-30.5 -76.5t-12 -75.5q-23 0 -56.5 3t-49.5 11q3 34 3 73q0 20 -1 41q-2 62 -12 109q82 41 172 66.5t186 25.5 q70 0 119 -21.5t88 -57.5q27 -27 43 -58t25.5 -72.5t13.5 -95t4 -127.5v-219q0 -98 21.5 -131t95.5 -33q0 -23 -3 -50.5t-12 -45.5q-53 -8 -113.5 -25.5t-103.5 -37.5q-20 8 -35.5 30.5t-15.5 69.5q0 31 2 51.5t2 34.5q-8 -27 -23.5 -53.5t-52.5 -59.5q-35 -31 -85 -50 t-119 -19q-133 0 -200 57.5t-67 159.5zM301 244q0 -76 37 -111t84 -35q33 0 68.5 16.5t66.5 51.5t50.5 89t19.5 132v78q-53 -6 -110.5 -17.5t-104.5 -34t-79 -62t-32 -107.5zM432 1100q49 102 80.5 188t52.5 164q45 16 83 21.5t68 3.5q18 -2 34 -6.5t26 -8.5 q-68 -78 -139.5 -179t-131.5 -196q-18 -2 -37.5 1.5t-35.5 11.5z" />
<glyph unicode="&#xe2;" horiz-adv-x="989" d="M102 203q0 100 58.5 162.5t141.5 100.5t172 55.5t153 27.5q0 63 -2 104t-6.5 69t-13.5 46t-21 35q-49 61 -131 61q-47 0 -80 -24.5t-54.5 -60.5t-30.5 -76.5t-12 -75.5q-23 0 -56.5 3t-49.5 11q3 34 3 73q0 20 -1 41q-2 62 -12 109q82 41 172 66.5t186 25.5 q70 0 119 -21.5t88 -57.5q27 -27 43 -58t25.5 -72.5t13.5 -95t4 -127.5v-219q0 -98 21.5 -131t95.5 -33q0 -23 -3 -50.5t-12 -45.5q-53 -8 -113.5 -25.5t-103.5 -37.5q-20 8 -35.5 30.5t-15.5 69.5q0 31 2 51.5t2 34.5q-8 -27 -23.5 -53.5t-52.5 -59.5q-35 -31 -85 -50 t-119 -19q-133 0 -200 57.5t-67 159.5zM301 244q0 -76 37 -111t84 -35q33 0 68.5 16.5t66.5 51.5t50.5 89t19.5 132v78q-53 -6 -110.5 -17.5t-104.5 -34t-79 -62t-32 -107.5zM125 1137q78 59 165 141t156 166q16 4 34.5 6t31.5 2q55 -76 131 -164t168 -180q-20 -27 -62 -37 l-69 49l-74 54q-37 27 -74 50l-69 42q-25 -12 -67 -39l-89 -58l-91 -61l-69 -49q-14 14 -18 39t-4 39z" />
<glyph unicode="&#xe3;" horiz-adv-x="989" d="M102 203q0 100 58.5 162.5t141.5 100.5t172 55.5t153 27.5q0 63 -2 104t-6.5 69t-13.5 46t-21 35q-49 61 -131 61q-47 0 -80 -24.5t-54.5 -60.5t-30.5 -76.5t-12 -75.5q-23 0 -56.5 3t-49.5 11q3 34 3 73q0 20 -1 41q-2 62 -12 109q82 41 172 66.5t186 25.5 q70 0 119 -21.5t88 -57.5q27 -27 43 -58t25.5 -72.5t13.5 -95t4 -127.5v-219q0 -98 21.5 -131t95.5 -33q0 -23 -3 -50.5t-12 -45.5q-53 -8 -113.5 -25.5t-103.5 -37.5q-20 8 -35.5 30.5t-15.5 69.5q0 31 2 51.5t2 34.5q-8 -27 -23.5 -53.5t-52.5 -59.5q-35 -31 -85 -50 t-119 -19q-133 0 -200 57.5t-67 159.5zM301 244q0 -76 37 -111t84 -35q33 0 68.5 16.5t66.5 51.5t50.5 89t19.5 132v78q-53 -6 -110.5 -17.5t-104.5 -34t-79 -62t-32 -107.5zM168 1098q61 109 116.5 147.5t106.5 38.5q37 0 71 -13.5t67.5 -28.5l66.5 -28.5t68 -13.5 q31 0 61.5 14.5t63.5 49.5q8 0 19 -3.5t19 -13.5q-53 -115 -102 -155.5t-96 -40.5q-35 0 -69 13t-68.5 30.5t-70.5 31t-75 13.5q-37 0 -76 -17.5t-82 -62.5q-20 12 -20 39z" />
<glyph unicode="&#xe4;" horiz-adv-x="989" d="M102 203q0 100 58.5 162.5t141.5 100.5t172 55.5t153 27.5q0 63 -2 104t-6.5 69t-13.5 46t-21 35q-49 61 -131 61q-47 0 -80 -24.5t-54.5 -60.5t-30.5 -76.5t-12 -75.5q-23 0 -56.5 3t-49.5 11q3 34 3 73q0 20 -1 41q-2 62 -12 109q82 41 172 66.5t186 25.5 q70 0 119 -21.5t88 -57.5q27 -27 43 -58t25.5 -72.5t13.5 -95t4 -127.5v-219q0 -98 21.5 -131t95.5 -33q0 -23 -3 -50.5t-12 -45.5q-53 -8 -113.5 -25.5t-103.5 -37.5q-20 8 -35.5 30.5t-15.5 69.5q0 31 2 51.5t2 34.5q-8 -27 -23.5 -53.5t-52.5 -59.5q-35 -31 -85 -50 t-119 -19q-133 0 -200 57.5t-67 159.5zM301 244q0 -76 37 -111t84 -35q33 0 68.5 16.5t66.5 51.5t50.5 89t19.5 132v78q-53 -6 -110.5 -17.5t-104.5 -34t-79 -62t-32 -107.5zM191 1194q0 45 26.5 81t86.5 36q61 0 88.5 -33t27.5 -80t-32.5 -77.5t-79.5 -30.5q-53 0 -85 29.5 t-32 74.5zM588 1206q0 49 32 77t83 28t84 -29t33 -76q0 -43 -24.5 -78.5t-86.5 -35.5q-59 0 -90 31.5t-31 82.5z" />
<glyph unicode="&#xe5;" horiz-adv-x="989" d="M102 203q0 100 58.5 162.5t141.5 100.5t172 55.5t153 27.5q0 63 -2 104t-6.5 69t-13.5 46t-21 35q-49 61 -131 61q-47 0 -80 -24.5t-54.5 -60.5t-30.5 -76.5t-12 -75.5q-23 0 -56.5 3t-49.5 11q3 34 3 73q0 20 -1 41q-2 62 -12 109q82 41 172 66.5t186 25.5 q70 0 119 -21.5t88 -57.5q27 -27 43 -58t25.5 -72.5t13.5 -95t4 -127.5v-219q0 -98 21.5 -131t95.5 -33q0 -23 -3 -50.5t-12 -45.5q-53 -8 -113.5 -25.5t-103.5 -37.5q-20 8 -35.5 30.5t-15.5 69.5q0 31 2 51.5t2 34.5q-8 -27 -23.5 -53.5t-52.5 -59.5q-35 -31 -85 -50 t-119 -19q-133 0 -200 57.5t-67 159.5zM301 244q0 -76 37 -111t84 -35q33 0 68.5 16.5t66.5 51.5t50.5 89t19.5 132v78q-53 -6 -110.5 -17.5t-104.5 -34t-79 -62t-32 -107.5zM285 1257q0 82 61.5 137.5t151.5 55.5q37 0 73.5 -10t64.5 -33t45.5 -56.5t17.5 -78.5 q0 -84 -61.5 -139.5t-153.5 -55.5q-39 0 -75 12.5t-63.5 36t-44 57t-16.5 74.5zM398 1266q0 -47 27.5 -80t78.5 -33q33 0 58.5 25.5t25.5 72.5q0 43 -25.5 86t-78.5 43q-39 0 -62.5 -30.5t-23.5 -83.5z" />
<glyph unicode="&#xe6;" horiz-adv-x="1400" d="M78 199q0 100 53 164.5t133 102.5t172 56q84 16 156 27v108q0 104 -52.5 155.5t-119.5 51.5q-49 0 -80 -22.5t-51.5 -56t-29.5 -76.5t-15 -82q-23 0 -57.5 3t-49.5 11q4 51 2 113.5t-12 109.5q86 41 170 66.5t188 25.5q82 0 146 -38q49 -31 86 -91q49 63 110 93 q82 37 166 36q80 0 140.5 -34.5t102.5 -89t63.5 -121t25.5 -131.5q-4 -20 -11 -41t-22 -37q-150 -4 -284 -10q-117 -6 -226 -17v-4q0 -61 12.5 -128t42 -121t75.5 -90t114 -36q100 0 158.5 39t93.5 86q14 -10 30.5 -27.5t20.5 -33.5q-68 -92 -155 -132t-193 -40 q-102 0 -175 43t-122 110q-23 33 -41 68q-2 -10 -6 -21q-16 -51 -37 -79q-80 -121 -250 -121q-135 0 -203.5 54.5t-68.5 156.5zM268 238q0 -43 13.5 -70t33 -43t43 -22.5t45.5 -6.5q82 0 136 82q53 82 53 268v11q-156 -16 -238 -60q-86 -46 -86 -159zM782 567q72 8 148 13 q90 6 196 10q0 43 -9 91t-30.5 89t-56.5 67.5t-88 26.5q-82 0 -121 -75.5t-39 -200.5v-21z" />
<glyph unicode="&#xe7;" horiz-adv-x="921" d="M82 465q0 92 27.5 180t82 157.5t133 111.5t183.5 42q193 0 309 -92q-10 -59 -12 -116.5t-2 -116.5q-16 -10 -44 -13.5t-50 -3.5q-12 119 -69.5 182.5t-147.5 63.5q-102 0 -161 -94t-59 -270q0 -78 19.5 -150t56.5 -127t91.5 -88t125.5 -33q137 0 228 119 q16 -8 30.5 -23.5t20.5 -33.5q-55 -88 -137 -133q-72 -39 -168 -45l-62 -84q82 -14 130 -63.5t48 -123.5q0 -51 -25.5 -90t-65.5 -64.5t-86 -39t-85 -13.5q-8 14 -11 32t-3 34q61 0 111.5 29.5t50.5 83.5q0 51 -38 80.5t-95 29.5q-16 12 -26.5 31.5t-10.5 46.5l71 117 q-45 6 -90 24q-76 31 -136 91.5t-97 150.5t-37 211z" />
<glyph unicode="&#xe8;" horiz-adv-x="970" d="M82 469q0 98 29.5 186t84 156t133.5 106.5t177 38.5q100 0 169.5 -33.5t115 -91t69 -134t29.5 -165.5q-8 -41 -31 -69h-104q-70 0 -157 -1t-181 -5q-68 -2 -131 -6q2 -45 10 -89q14 -74 48 -133t91.5 -96t147.5 -37q68 0 133 30t116 89q16 -10 31 -28.5t19 -34.5 q-72 -92 -162 -131t-203 -39q-109 0 -190.5 38.5t-136 104t-81 155t-26.5 189.5zM283 555h393q0 135 -49 219t-140 84q-37 0 -73.5 -15.5t-66.5 -55t-48 -107.5q-12 -51 -16 -125zM200 1442q41 20 93.5 22t103.5 -6q27 -88 61.5 -177t83.5 -181q-18 -10 -39.5 -9t-41.5 5 q-72 111 -133.5 193.5t-127.5 152.5z" />
<glyph unicode="&#xe9;" horiz-adv-x="970" d="M82 469q0 98 29.5 186t84 156t133.5 106.5t177 38.5q100 0 169.5 -33.5t115 -91t69 -134t29.5 -165.5q-8 -41 -31 -69h-104q-70 0 -157 -1t-181 -5q-68 -2 -131 -6q2 -45 10 -89q14 -74 48 -133t91.5 -96t147.5 -37q68 0 133 30t116 89q16 -10 31 -28.5t19 -34.5 q-72 -92 -162 -131t-203 -39q-109 0 -190.5 38.5t-136 104t-81 155t-26.5 189.5zM283 555h393q0 135 -49 219t-140 84q-37 0 -73.5 -15.5t-66.5 -55t-48 -107.5q-12 -51 -16 -125zM459 1100q49 102 80.5 188t52.5 164q45 16 83 21.5t68 3.5q18 -2 34 -6.5t26 -8.5 q-68 -78 -139.5 -179t-131.5 -196q-18 -2 -37.5 1.5t-35.5 11.5z" />
<glyph unicode="&#xea;" horiz-adv-x="970" d="M82 469q0 98 29.5 186t84 156t133.5 106.5t177 38.5q100 0 169.5 -33.5t115 -91t69 -134t29.5 -165.5q-8 -41 -31 -69h-104q-70 0 -157 -1t-181 -5q-68 -2 -131 -6q2 -45 10 -89q14 -74 48 -133t91.5 -96t147.5 -37q68 0 133 30t116 89q16 -10 31 -28.5t19 -34.5 q-72 -92 -162 -131t-203 -39q-109 0 -190.5 38.5t-136 104t-81 155t-26.5 189.5zM283 555h393q0 135 -49 219t-140 84q-37 0 -73.5 -15.5t-66.5 -55t-48 -107.5q-12 -51 -16 -125zM164 1137q78 59 165 141t156 166q16 4 34.5 6t31.5 2q55 -76 131 -164t168 -180 q-20 -27 -62 -37l-69 49l-74 54q-37 27 -74 50l-69 42q-25 -12 -67 -39l-89 -58l-91 -61l-69 -49q-14 14 -18 39t-4 39z" />
<glyph unicode="&#xeb;" horiz-adv-x="970" d="M82 469q0 98 29.5 186t84 156t133.5 106.5t177 38.5q100 0 169.5 -33.5t115 -91t69 -134t29.5 -165.5q-8 -41 -31 -69h-104q-70 0 -157 -1t-181 -5q-68 -2 -131 -6q2 -45 10 -89q14 -74 48 -133t91.5 -96t147.5 -37q68 0 133 30t116 89q16 -10 31 -28.5t19 -34.5 q-72 -92 -162 -131t-203 -39q-109 0 -190.5 38.5t-136 104t-81 155t-26.5 189.5zM283 555h393q0 135 -49 219t-140 84q-37 0 -73.5 -15.5t-66.5 -55t-48 -107.5q-12 -51 -16 -125zM197 1194q0 45 26.5 81t86.5 36q61 0 88.5 -33t27.5 -80t-32.5 -77.5t-79.5 -30.5 q-53 0 -85 29.5t-32 74.5zM594 1206q0 49 32 77t83 28t84 -29t33 -76q0 -43 -24.5 -78.5t-86.5 -35.5q-59 0 -90 31.5t-31 82.5z" />
<glyph unicode="&#xec;" horiz-adv-x="655" d="M-23 1442q41 20 93.5 22t103.5 -6q27 -88 61.5 -177t83.5 -181q-18 -10 -39.5 -9t-41.5 5q-72 111 -133.5 193.5t-127.5 152.5zM412 260q0 -102 27.5 -140t92.5 -38q6 -23 8.5 -48.5t2.5 -39.5q-53 4 -112.5 5t-119.5 1q-59 0 -121.5 -1t-113.5 -5q0 20 2 43.5t8 44.5 q82 0 111.5 38t29.5 140v406q0 37 -4 63.5t-20.5 45t-47 27.5t-81.5 9q0 23 4 41t14 35q23 0 62 6t79.5 15.5t77.5 22.5t56 25q18 -6 31.5 -24.5t13.5 -57.5v-614z" />
<glyph unicode="&#xed;" horiz-adv-x="663" d="M256 1100q49 102 80.5 188t52.5 164q45 16 83 21.5t68 3.5q18 -2 34 -6.5t26 -8.5q-68 -78 -139.5 -179t-131.5 -196q-18 -2 -37.5 1.5t-35.5 11.5zM412 260q0 -102 27.5 -140t92.5 -38q6 -23 8.5 -48.5t2.5 -39.5q-53 4 -112.5 5t-119.5 1q-59 0 -121.5 -1t-113.5 -5 q0 20 2 43.5t8 44.5q82 0 111.5 38t29.5 140v406q0 37 -4 63.5t-20.5 45t-47 27.5t-81.5 9q0 23 4 41t14 35q23 0 62 6t79.5 15.5t77.5 22.5t56 25q18 -6 31.5 -24.5t13.5 -57.5v-614z" />
<glyph unicode="&#xee;" horiz-adv-x="641" d="M-28 1137q78 59 165 141t156 166q16 4 34.5 6t31.5 2q55 -76 131 -164t168 -180q-20 -27 -62 -37l-69 49l-74 54q-37 27 -74 50l-69 42q-25 -12 -67 -39l-89 -58l-91 -61l-69 -49q-14 14 -18 39t-4 39zM412 260q0 -102 27.5 -140t92.5 -38q6 -23 8.5 -48.5t2.5 -39.5 q-53 4 -112.5 5t-119.5 1q-59 0 -121.5 -1t-113.5 -5q0 20 2 43.5t8 44.5q82 0 111.5 38t29.5 140v406q0 37 -4 63.5t-20.5 45t-47 27.5t-81.5 9q0 23 4 41t14 35q23 0 62 6t79.5 15.5t77.5 22.5t56 25q18 -6 31.5 -24.5t13.5 -57.5v-614z" />
<glyph unicode="&#xef;" horiz-adv-x="610" d="M-14 1194q0 45 26.5 81t86.5 36q61 0 88.5 -33t27.5 -80t-32.5 -77.5t-79.5 -30.5q-53 0 -85 29.5t-32 74.5zM383 1206q0 49 32 77t83 28t84 -29t33 -76q0 -43 -24.5 -78.5t-86.5 -35.5q-59 0 -90 31.5t-31 82.5zM412 260q0 -102 27.5 -140t92.5 -38q6 -23 8.5 -48.5 t2.5 -39.5q-53 4 -112.5 5t-119.5 1q-59 0 -121.5 -1t-113.5 -5q0 20 2 43.5t8 44.5q82 0 111.5 38t29.5 140v406q0 37 -4 63.5t-20.5 45t-47 27.5t-81.5 9q0 23 4 41t14 35q23 0 62 6t79.5 15.5t77.5 22.5t56 25q18 -6 31.5 -24.5t13.5 -57.5v-614z" />
<glyph unicode="&#xf0;" horiz-adv-x="1089" d="M88 436q0 127 44 214t111.5 141.5t151.5 79t164 24.5q63 0 123 -25q35 -14 63 -34q-39 98 -104 176q-57 68 -135 123l-78 -48l-145 -83q-12 23 -22.5 54.5t-8.5 47.5l158 88q-102 57 -232 106q0 16 3 33t20 37q156 -27 301 -94q14 -6 28 -14l232 129q14 -29 22.5 -52.5 t6.5 -50.5l-136 -71l-22 -13q68 -45 125 -98q113 -104 179.5 -244.5t66.5 -314.5q0 -150 -36 -256.5t-100.5 -175t-151.5 -100t-190 -31.5q-238 0 -338 117.5t-100 334.5zM285 465q0 -186 73.5 -276.5t190.5 -90.5q35 0 78 20.5t80.5 70t63.5 131t26 204.5q0 100 -17 185 q-31 29 -69 53q-68 39 -170 39q-53 0 -99.5 -18.5t-81 -58.5t-55 -103.5t-20.5 -155.5z" />
<glyph unicode="&#xf1;" horiz-adv-x="1220" d="M279 1098q61 109 116.5 147.5t106.5 38.5q37 0 71 -13.5t67.5 -28.5l66.5 -28.5t68 -13.5q31 0 61.5 14.5t63.5 49.5q8 0 19 -3.5t19 -13.5q-53 -115 -102 -155.5t-96 -40.5q-35 0 -69 13t-68.5 30.5t-70.5 31t-75 13.5q-37 0 -76 -17.5t-82 -62.5q-20 12 -20 39zM74 811 q0 23 4 41t14 35q31 2 69 9t75.5 16.5t71.5 20.5t59 23q18 -6 31.5 -25.5t13.5 -64.5q0 -25 -2 -55.5t-13 -65.5q6 10 12.5 23.5t18.5 30.5q16 25 45 50t67 47t84 36t101 14q57 0 110.5 -17.5t94.5 -56t64.5 -102t23.5 -158.5v-352q0 -106 29.5 -142t91.5 -36q6 -18 8 -38.5 t2 -49.5q-45 4 -102.5 5t-120.5 1t-130 -2t-114 -4q0 59 10 88q74 0 108 38t34 140v311q0 72 -14.5 120t-40 77t-60.5 41t-76 12t-82 -18.5t-73.5 -59.5t-54 -105.5t-21.5 -158.5v-219q0 -102 30.5 -140t110.5 -38q6 -18 8 -38.5t2 -49.5q-43 2 -111.5 4t-132.5 2 q-63 0 -130.5 -1t-112.5 -5q0 59 10 88q80 0 110.5 38t30.5 140v406q0 37 -5 63.5t-21.5 44t-46 26.5t-80.5 11z" />
<glyph unicode="&#xf2;" horiz-adv-x="1089" d="M82 469q0 104 34 193.5t95 155t146 102t188 36.5q109 0 194.5 -34.5t145 -99t91.5 -154.5t32 -199q0 -104 -34 -194.5t-94.5 -155t-145.5 -101t-189 -36.5t-190.5 34.5t-147 98t-93 153.5t-32.5 201zM289 512q0 -209 73.5 -320.5t198.5 -111.5q123 0 182.5 101.5 t59.5 262.5q0 94 -22.5 171t-60.5 131.5t-88 83t-108 28.5q-119 0 -177 -96t-58 -250zM239 1442q41 20 93.5 22t103.5 -6q27 -88 61.5 -177t83.5 -181q-18 -10 -39.5 -9t-41.5 5q-72 111 -133.5 193.5t-127.5 152.5z" />
<glyph unicode="&#xf3;" horiz-adv-x="1089" d="M82 469q0 104 34 193.5t95 155t146 102t188 36.5q109 0 194.5 -34.5t145 -99t91.5 -154.5t32 -199q0 -104 -34 -194.5t-94.5 -155t-145.5 -101t-189 -36.5t-190.5 34.5t-147 98t-93 153.5t-32.5 201zM289 512q0 -209 73.5 -320.5t198.5 -111.5q123 0 182.5 101.5 t59.5 262.5q0 94 -22.5 171t-60.5 131.5t-88 83t-108 28.5q-119 0 -177 -96t-58 -250zM496 1100q49 102 80.5 188t52.5 164q45 16 83 21.5t68 3.5q18 -2 34 -6.5t26 -8.5q-68 -78 -139.5 -179t-131.5 -196q-18 -2 -37.5 1.5t-35.5 11.5z" />
<glyph unicode="&#xf4;" horiz-adv-x="1089" d="M82 469q0 104 34 193.5t95 155t146 102t188 36.5q109 0 194.5 -34.5t145 -99t91.5 -154.5t32 -199q0 -104 -34 -194.5t-94.5 -155t-145.5 -101t-189 -36.5t-190.5 34.5t-147 98t-93 153.5t-32.5 201zM289 512q0 -209 73.5 -320.5t198.5 -111.5q123 0 182.5 101.5 t59.5 262.5q0 94 -22.5 171t-60.5 131.5t-88 83t-108 28.5q-119 0 -177 -96t-58 -250zM207 1137q78 59 165 141t156 166q16 4 34.5 6t31.5 2q55 -76 131 -164t168 -180q-20 -27 -62 -37l-69 49l-74 54q-37 27 -74 50l-69 42q-25 -12 -67 -39l-89 -58l-91 -61l-69 -49 q-14 14 -18 39t-4 39z" />
<glyph unicode="&#xf5;" horiz-adv-x="1089" d="M82 469q0 104 34 193.5t95 155t146 102t188 36.5q109 0 194.5 -34.5t145 -99t91.5 -154.5t32 -199q0 -104 -34 -194.5t-94.5 -155t-145.5 -101t-189 -36.5t-190.5 34.5t-147 98t-93 153.5t-32.5 201zM289 512q0 -209 73.5 -320.5t198.5 -111.5q123 0 182.5 101.5 t59.5 262.5q0 94 -22.5 171t-60.5 131.5t-88 83t-108 28.5q-119 0 -177 -96t-58 -250zM229 1098q61 109 116.5 147.5t106.5 38.5q37 0 71 -13.5t67.5 -28.5l66.5 -28.5t68 -13.5q31 0 61.5 14.5t63.5 49.5q8 0 19 -3.5t19 -13.5q-53 -115 -102 -155.5t-96 -40.5 q-35 0 -69 13t-68.5 30.5t-70.5 31t-75 13.5q-37 0 -76 -17.5t-82 -62.5q-20 12 -20 39z" />
<glyph unicode="&#xf6;" horiz-adv-x="1089" d="M82 469q0 104 34 193.5t95 155t146 102t188 36.5q109 0 194.5 -34.5t145 -99t91.5 -154.5t32 -199q0 -104 -34 -194.5t-94.5 -155t-145.5 -101t-189 -36.5t-190.5 34.5t-147 98t-93 153.5t-32.5 201zM289 512q0 -209 73.5 -320.5t198.5 -111.5q123 0 182.5 101.5 t59.5 262.5q0 94 -22.5 171t-60.5 131.5t-88 83t-108 28.5q-119 0 -177 -96t-58 -250zM213 1194q0 45 26.5 81t86.5 36q61 0 88.5 -33t27.5 -80t-32.5 -77.5t-79.5 -30.5q-53 0 -85 29.5t-32 74.5zM610 1206q0 49 32 77t83 28t84 -29t33 -76q0 -43 -24.5 -78.5t-86.5 -35.5 q-59 0 -90 31.5t-31 82.5z" />
<glyph unicode="&#xf7;" horiz-adv-x="1077" d="M41 483q0 23 5 56.5t15 48.5h973q0 -31 -3 -55.5t-17 -47.5q-86 0 -142.5 1t-103.5 1h-209q-135 0 -257 -1t-261 -3zM434 866q0 45 32 66.5t75 21.5t73.5 -23.5t30.5 -64.5q0 -47 -21.5 -79.5t-76.5 -32.5q-59 0 -86 30.5t-27 81.5zM444 223q0 41 24 71t79 30 q57 0 81.5 -27t24.5 -74q0 -45 -30.5 -71.5t-71.5 -26.5q-47 0 -77 28.5t-30 69.5z" />
<glyph unicode="&#xf8;" horiz-adv-x="1097" d="M82 -35l127 156q-55 61 -86 147q-33 90 -33 201q0 104 34 193.5t95.5 155t146.5 102t187 36.5q109 0 195 -34q33 -14 61 -31l76 96q33 -4 51 -14t39 -35l-86 -113l4 -4q59 -63 91 -153t32 -199q0 -104 -34 -194.5t-94.5 -155t-145.5 -101t-189 -36.5t-191 34 q-45 16 -81 41l-109 -137q-29 0 -54.5 13.5t-35.5 31.5zM297 512q0 -141 33 -238l381 494q-31 39 -72 61q-49 29 -107 29q-119 0 -177 -96t-58 -250zM379 178q72 -98 190 -98q123 0 182.5 101.5t59.5 262.5q0 94 -23 170q-10 33 -22 62z" />
<glyph unicode="&#xf9;" horiz-adv-x="1193" d="M301 1442q41 20 93.5 22t103.5 -6q27 -88 61.5 -177t83.5 -181q-18 -10 -39.5 -9t-41.5 5q-72 111 -133.5 193.5t-127.5 152.5zM72 811q0 23 2 40t12 36q31 2 66.5 9t70.5 16.5t67 20.5t56 23q18 -6 31.5 -25.5t13.5 -64.5v-465q0 -156 41 -220t144 -64q41 0 81.5 20.5 t72.5 63.5t51.5 109.5t19.5 156.5v209q0 37 -5 63.5t-21.5 44t-46.5 26.5t-81 11q0 23 2 40.5t13 35.5q80 4 155.5 20.5t122.5 38.5q18 -6 31.5 -25.5t13.5 -64.5v-587q0 -37 4 -64t18.5 -44t41 -26.5t73.5 -11.5q0 -23 -2 -44t-10 -44q-23 0 -57.5 -5t-70.5 -13.5 t-67.5 -20.5t-50.5 -24q-18 6 -34.5 26.5t-16.5 73.5q0 41 4 82v18q-20 -45 -61 -86q-104 -104 -248 -104q-72 0 -128 18.5t-95 60.5t-58.5 111.5t-19.5 173.5v310q0 37 -3 63.5t-17.5 44t-41 26.5t-73.5 11z" />
<glyph unicode="&#xfa;" horiz-adv-x="1193" d="M514 1100q49 102 80.5 188t52.5 164q45 16 83 21.5t68 3.5q18 -2 34 -6.5t26 -8.5q-68 -78 -139.5 -179t-131.5 -196q-18 -2 -37.5 1.5t-35.5 11.5zM72 811q0 23 2 40t12 36q31 2 66.5 9t70.5 16.5t67 20.5t56 23q18 -6 31.5 -25.5t13.5 -64.5v-465q0 -156 41 -220 t144 -64q41 0 81.5 20.5t72.5 63.5t51.5 109.5t19.5 156.5v209q0 37 -5 63.5t-21.5 44t-46.5 26.5t-81 11q0 23 2 40.5t13 35.5q80 4 155.5 20.5t122.5 38.5q18 -6 31.5 -25.5t13.5 -64.5v-587q0 -37 4 -64t18.5 -44t41 -26.5t73.5 -11.5q0 -23 -2 -44t-10 -44 q-23 0 -57.5 -5t-70.5 -13.5t-67.5 -20.5t-50.5 -24q-18 6 -34.5 26.5t-16.5 73.5q0 41 4 82v18q-20 -45 -61 -86q-104 -104 -248 -104q-72 0 -128 18.5t-95 60.5t-58.5 111.5t-19.5 173.5v310q0 37 -3 63.5t-17.5 44t-41 26.5t-73.5 11z" />
<glyph unicode="&#xfb;" horiz-adv-x="1193" d="M228 1137q78 59 165 141t156 166q16 4 34.5 6t31.5 2q55 -76 131 -164t168 -180q-20 -27 -62 -37l-69 49l-74 54q-37 27 -74 50l-69 42q-25 -12 -67 -39l-89 -58l-91 -61l-69 -49q-14 14 -18 39t-4 39zM72 811q0 23 2 40t12 36q31 2 66.5 9t70.5 16.5t67 20.5t56 23 q18 -6 31.5 -25.5t13.5 -64.5v-465q0 -156 41 -220t144 -64q41 0 81.5 20.5t72.5 63.5t51.5 109.5t19.5 156.5v209q0 37 -5 63.5t-21.5 44t-46.5 26.5t-81 11q0 23 2 40.5t13 35.5q80 4 155.5 20.5t122.5 38.5q18 -6 31.5 -25.5t13.5 -64.5v-587q0 -37 4 -64t18.5 -44 t41 -26.5t73.5 -11.5q0 -23 -2 -44t-10 -44q-23 0 -57.5 -5t-70.5 -13.5t-67.5 -20.5t-50.5 -24q-18 6 -34.5 26.5t-16.5 73.5q0 41 4 82v18q-20 -45 -61 -86q-104 -104 -248 -104q-72 0 -128 18.5t-95 60.5t-58.5 111.5t-19.5 173.5v310q0 37 -3 63.5t-17.5 44t-41 26.5 t-73.5 11z" />
<glyph unicode="&#xfc;" horiz-adv-x="1153" d="M221 1194q0 45 26.5 81t86.5 36q61 0 88.5 -33t27.5 -80t-32.5 -77.5t-79.5 -30.5q-53 0 -85 29.5t-32 74.5zM618 1206q0 49 32 77t83 28t84 -29t33 -76q0 -43 -24.5 -78.5t-86.5 -35.5q-59 0 -90 31.5t-31 82.5zM31 811q0 23 2 40t12 36q31 2 66.5 9t70.5 16.5t67 20.5 t56 23q18 -6 31.5 -25.5t13.5 -64.5v-465q0 -156 41 -220t144 -64q41 0 81.5 20.5t72.5 63.5t51.5 109.5t19.5 156.5v209q0 37 -5 63.5t-21.5 44t-46.5 26.5t-81 11q0 23 2 40.5t13 35.5q80 4 155.5 20.5t122.5 38.5q18 -6 31.5 -25.5t13.5 -64.5v-587q0 -37 4 -64t18.5 -44 t41 -26.5t73.5 -11.5q0 -23 -2 -44t-10 -44q-23 0 -57.5 -5t-70.5 -13.5t-67.5 -20.5t-50.5 -24q-18 6 -34.5 26.5t-16.5 73.5q0 41 4 82v18q-20 -45 -61 -86q-104 -104 -248 -104q-72 0 -128 18.5t-95 60.5t-58.5 111.5t-19.5 173.5v310q0 37 -3 63.5t-17.5 44t-41 26.5 t-73.5 11z" />
<glyph unicode="&#xfd;" horiz-adv-x="1175" d="M98 942q59 -2 118.5 -3t112.5 -1h131l74 2q37 2 68 2q0 -53 -15 -88q-55 -10 -85.5 -24.5t-41.5 -39.5q-5 -13 -5 -29.5t5 -35.5q10 -39 39 -96l47 -104l55 -121q28 -62 52 -123q16 -39 29 -74l20 47l141 356q27 66 32 109q2 13 2 24q0 27 -9 47q-12 28 -42 42t-75 22 q-14 41 -14 88q47 -4 96 -4h213q51 0 98 4q0 -20 -1 -42.5t-11 -45.5q-29 -6 -49 -18.5t-37.5 -36t-36 -62.5l-43.5 -96l-301 -717q-59 -139 -104 -225t-85 -132t-80 -61.5t-87 -15.5q-61 0 -97 15.5t-57 31.5q-7 25 -6 59v18q2 46 8 73q70 -12 131 -13q59 0 112.5 28 t94.5 93q14 20 36 64.5t48 105.5q6 10 10 21l-63 141l-78 176l-75 164l-62 135q-37 76 -62.5 123t-48 73.5t-43 38t-47.5 17.5q-12 37 -12 88zM633 1100q49 102 80.5 188t52.5 164q45 16 83 21.5t68 3.5q18 -2 34 -6.5t26 -8.5q-68 -78 -139.5 -179t-131.5 -196 q-18 -2 -37.5 1.5t-35.5 11.5z" />
<glyph unicode="&#xfe;" horiz-adv-x="1187" d="M88 1323q0 23 4 41t14 35q23 0 62 6t80 15.5t77.5 22.5t55.5 25q18 -6 31.5 -24.5t13.5 -57.5v-516q0 -16 -2 -34q8 8 16 18q27 27 64 49.5t82 37.5t96 15q180 0 281.5 -108.5t101.5 -345.5q0 -109 -37 -203t-103.5 -165t-160.5 -111.5t-209 -40.5q-59 0 -102 10l-27 6 v-234q0 -53 7 -87.5t24.5 -54t49.5 -28t81 -8.5q6 -18 8 -38.5t2 -49.5q-49 4 -122 5t-132 1t-129 -1t-125 -5q0 59 10 88q82 0 112 38t30 140v1414q0 37 -5.5 63.5t-21.5 45t-46 27.5t-81 9zM412 635l14 -8v-512q10 -4 18 -11q49 -29 121 -28q43 0 94.5 16.5t96.5 61.5 t75.5 121.5t30.5 199.5q0 98 -23.5 166t-57 109t-74.5 59t-74 18q-45 0 -89 -20.5t-81 -67.5q-31 -41 -51 -104z" />
<glyph unicode="&#xff;" horiz-adv-x="1175" d="M92 942q59 -2 118.5 -3t112.5 -1h131l74 2q37 2 68 2q0 -53 -15 -88q-55 -10 -85.5 -24.5t-41.5 -39.5q-5 -13 -5 -29.5t5 -35.5q10 -39 39 -96l47 -104l55 -121q28 -62 52 -123q16 -39 29 -74l20 47l141 356q27 66 32 109q2 13 2 24q0 27 -9 47q-12 28 -42 42t-75 22 q-14 41 -14 88q47 -4 96 -4h213q51 0 98 4q0 -20 -1 -42.5t-11 -45.5q-29 -6 -49 -18.5t-37.5 -36t-36 -62.5l-43.5 -96l-301 -717q-59 -139 -104 -225t-85 -132t-80 -61.5t-87 -15.5q-61 0 -97 15.5t-57 31.5q-7 25 -6 59v18q2 46 8 73q70 -12 131 -13q59 0 112.5 28 t94.5 93q14 20 36 64.5t48 105.5q6 10 10 21l-63 141l-78 176l-75 164l-62 135q-37 76 -62.5 123t-48 73.5t-43 38t-47.5 17.5q-12 37 -12 88zM324 1194q0 45 26.5 81t86.5 36q61 0 88.5 -33t27.5 -80t-32.5 -77.5t-79.5 -30.5q-53 0 -85 29.5t-32 74.5zM721 1206 q0 49 32 77t83 28t84 -29t33 -76q0 -43 -24.5 -78.5t-86.5 -35.5q-59 0 -90 31.5t-31 82.5z" />
<glyph unicode="&#x131;" horiz-adv-x="655" d="M412 260q0 -102 27.5 -140t92.5 -38q6 -23 8.5 -48.5t2.5 -39.5q-53 4 -112.5 5t-119.5 1q-59 0 -121.5 -1t-113.5 -5q0 20 2 43.5t8 44.5q82 0 111.5 38t29.5 140v406q0 37 -4 63.5t-20.5 45t-47 27.5t-81.5 9q0 23 4 41t14 35q23 0 62 6t79.5 15.5t77.5 22.5t56 25 q18 -6 31.5 -24.5t13.5 -57.5v-614z" />
<glyph unicode="&#x152;" horiz-adv-x="2693" d="M1614 -6q0 59 10 88q41 2 68.5 11t44 31.5t23.5 60.5t7 98v841q0 102 -29.5 138t-111.5 41q-6 16 -8 39.5t-2 48.5q31 -2 78 -3l97 -3q50 -1 95 -1h74q211 0 346 2.5t186 4.5q2 -35 7 -77l11 -86q5 -44 11 -86t14 -75q-16 -14 -39.5 -19.5t-52.5 -5.5q-4 47 -19.5 94.5 t-53 84t-101 59.5t-162.5 23h-147v-562h86q63 0 106 7.5t70 26t39 51t12 81.5q27 8 48.5 11.5t49.5 3.5q-4 -53 -4 -113v-229q0 -66 4 -119q-29 0 -50 2t-44 8q-4 53 -17 88t-40 56.5t-69 29.5t-105 8h-86v-370q0 -57 7 -94t27.5 -58.5t56.5 -30t93 -8.5h12q94 0 153.5 16.5 t97.5 49t61.5 81t46.5 111.5q31 -10 51.5 -20.5t38.5 -28.5q-23 -72 -38 -152.5t-26 -152.5q-31 0 -74.5 1t-97 2t-110.5 1h-248q-76 0 -150.5 -1t-141 -2t-105.5 -3zM72 696q0 156 52 286t143 224t215 145.5t266 51.5q147 0 271 -51.5t214 -144.5t141 -223t51 -288 q0 -152 -50 -281.5t-140 -226t-214 -151.5t-273 -55q-152 0 -277 54t-214 150.5t-137 226t-48 283.5zM283 752q0 -129 32.5 -250t97 -214t159 -149.5t216.5 -56.5q100 0 179.5 44t134.5 120t83.5 178t28.5 219q0 137 -38.5 258t-106.5 211t-161 141.5t-203 51.5 q-90 0 -168 -40t-134.5 -113t-88 -174t-31.5 -226z" />
<glyph unicode="&#x153;" horiz-adv-x="2060" d="M1172 469q0 98 29.5 186t84 156t133.5 106.5t177 38.5q100 0 169.5 -33.5t115 -91t69 -134t29.5 -165.5q-8 -41 -31 -69h-104q-70 0 -157 -1t-181 -5q-68 -2 -131 -6q2 -45 10 -89q14 -74 48 -133t91.5 -96t147.5 -37q68 0 133 30t116 89q16 -10 31 -28.5t19 -34.5 q-72 -92 -162 -131t-203 -39q-109 0 -190.5 38.5t-136 104t-81 155t-26.5 189.5zM1373 555h393q0 135 -49 219t-140 84q-37 0 -73.5 -15.5t-66.5 -55t-48 -107.5q-12 -51 -16 -125zM82 469q0 104 34 193.5t95 155t146 102t188 36.5q109 0 194.5 -34.5t145 -99t91.5 -154.5 t32 -199q0 -104 -34 -194.5t-94.5 -155t-145.5 -101t-189 -36.5t-190.5 34.5t-147 98t-93 153.5t-32.5 201zM289 512q0 -209 73.5 -320.5t198.5 -111.5q123 0 182.5 101.5t59.5 262.5q0 94 -22.5 171t-60.5 131.5t-88 83t-108 28.5q-119 0 -177 -96t-58 -250z" />
<glyph unicode="&#x178;" horiz-adv-x="1290" d="M330 1630q0 45 26.5 81t86.5 36q61 0 88.5 -33t27.5 -80t-32.5 -77.5t-79.5 -30.5q-53 0 -85 29.5t-32 74.5zM727 1642q0 49 32 77t83 28t84 -29t33 -76q0 -43 -24.5 -78.5t-86.5 -35.5q-59 0 -90 31.5t-31 82.5zM51 1389q43 -2 98.5 -3.5t114.5 -1.5h142q39 0 73.5 1 t59.5 4q0 -23 -2 -40.5t-9 -39.5q-80 -8 -91 -41q-2 -6 -2 -15q0 -34 38 -98l131 -231q59 -106 111 -209l102 192l115 207q45 79 45 120q0 11 -3 19q-15 39 -97 52q-6 23 -10.5 42t-4.5 42q37 -4 94 -5h107q47 0 94 1t82 4q0 -41 -8 -80q-29 -8 -51.5 -21.5t-47 -38 t-51 -63.5t-59.5 -99l-272 -483v-270q0 -82 5 -129t21.5 -71.5t47 -35t83.5 -16.5q12 -37 13 -88l-136 4q-68 2 -125 2h-73q-39 0 -78 -1t-73 -2t-54 -1q0 23 3 45t9 41q55 4 87 13t49.5 32t22.5 66t5 114v295l-342 582l-36 55q-15 23 -31.5 37t-36 20.5t-48.5 8.5 q-8 23 -10 42t-2 42z" />
<glyph unicode="&#x2c6;" d="M154 1137q78 59 165 141t156 166q16 4 34.5 6t31.5 2q55 -76 131 -164t168 -180q-20 -27 -62 -37l-69 49l-74 54q-37 27 -74 50l-69 42q-25 -12 -67 -39l-89 -58l-91 -61l-69 -49q-14 14 -18 39t-4 39z" />
<glyph unicode="&#x2da;" d="M422 1257q0 82 61.5 137.5t151.5 55.5q37 0 73.5 -10t64.5 -33t45.5 -56.5t17.5 -78.5q0 -84 -61.5 -139.5t-153.5 -55.5q-39 0 -75 12.5t-63.5 36t-44 57t-16.5 74.5zM535 1266q0 -47 27.5 -80t78.5 -33q33 0 58.5 25.5t25.5 72.5q0 43 -25.5 86t-78.5 43 q-39 0 -62.5 -30.5t-23.5 -83.5z" />
<glyph unicode="&#x2dc;" d="M213 1098q61 109 116.5 147.5t106.5 38.5q37 0 71 -13.5t67.5 -28.5l66.5 -28.5t68 -13.5q31 0 61.5 14.5t63.5 49.5q8 0 19 -3.5t19 -13.5q-53 -115 -102 -155.5t-96 -40.5q-35 0 -69 13t-68.5 30.5t-70.5 31t-75 13.5q-37 0 -76 -17.5t-82 -62.5q-20 12 -20 39z" />
<glyph unicode="&#x2000;" horiz-adv-x="958" />
<glyph unicode="&#x2001;" horiz-adv-x="1916" />
<glyph unicode="&#x2002;" horiz-adv-x="958" />
<glyph unicode="&#x2003;" horiz-adv-x="1916" />
<glyph unicode="&#x2004;" horiz-adv-x="638" />
<glyph unicode="&#x2005;" horiz-adv-x="479" />
<glyph unicode="&#x2006;" horiz-adv-x="319" />
<glyph unicode="&#x2007;" horiz-adv-x="319" />
<glyph unicode="&#x2008;" horiz-adv-x="239" />
<glyph unicode="&#x2009;" horiz-adv-x="382" />
<glyph unicode="&#x200a;" horiz-adv-x="106" />
<glyph unicode="&#x2010;" horiz-adv-x="858" d="M123 471q0 35 9 75t24 66h579q0 -33 -6 -68.5t-20 -64.5q-55 0 -135 -1l-160 -2l-159 -2q-77 -1 -132 -3z" />
<glyph unicode="&#x2011;" horiz-adv-x="858" d="M123 471q0 35 9 75t24 66h579q0 -33 -6 -68.5t-20 -64.5q-55 0 -135 -1l-160 -2l-159 -2q-77 -1 -132 -3z" />
<glyph unicode="&#x2012;" horiz-adv-x="858" d="M123 471q0 35 9 75t24 66h579q0 -33 -6 -68.5t-20 -64.5q-55 0 -135 -1l-160 -2l-159 -2q-77 -1 -132 -3z" />
<glyph unicode="&#x2013;" horiz-adv-x="1159" d="M123 481q0 29 6 61.5t16 53.5h891q0 -31 -4 -58.5t-18 -50.5h-205q-94 0 -194.5 -1t-218 -2t-273.5 -3z" />
<glyph unicode="&#x2014;" horiz-adv-x="2097" d="M123 481q0 12 2 28.5t5 33t7 31t8 20.5h1829q0 -31 -4 -57.5t-18 -49.5q-610 0 -1061 -1t-768 -5z" />
<glyph unicode="&#x2018;" horiz-adv-x="495" d="M123 1104q0 113 39 195.5t112 168.5q23 0 46.5 -7t35.5 -19q-27 -37 -42 -62.5t-23 -47t-11.5 -43t-3.5 -46.5q0 -90 97 -102q0 -20 -3 -58.5t-14 -64.5q-47 -10 -88 -24.5t-75 -37.5q-70 27 -70 148z" />
<glyph unicode="&#x2019;" horiz-adv-x="495" d="M332.008 1317.07q0 -112.993 -38.998 -195.488q-38.9971 -82.4951 -111.993 -168.489q-22.998 0 -46.4971 6.99902q-23.498 7 -35.498 18.999q26.999 36.998 41.998 62.4961q14.999 25.499 22.998 46.9971q8 21.499 11.499 42.998q3.5 21.498 3.5 46.4971 q0 89.9941 -96.9941 101.993q0 19.999 3 58.4971q3 38.4971 13.999 64.4961q46.9971 9.99902 87.9951 24.498q40.9971 14.499 74.9951 37.498q69.9961 -26.999 69.9961 -147.991z" />
<glyph unicode="&#x201a;" horiz-adv-x="495" d="M332.008 53.0674q0 -112.993 -38.998 -195.488q-38.9971 -82.4951 -111.993 -168.489q-22.998 0 -46.4971 6.99902q-23.498 7 -35.498 18.999q26.999 36.998 41.998 62.4961q14.999 25.499 22.998 46.9971q8 21.499 11.499 42.998q3.5 21.498 3.5 46.4971 q0 89.9941 -96.9941 101.993q0 19.999 3 58.4971q3 38.4971 13.999 64.4961q46.9971 9.99902 87.9951 24.498q40.9971 14.499 74.9951 37.498q69.9961 -26.999 69.9961 -147.991z" />
<glyph unicode="&#x201c;" horiz-adv-x="792" d="M123 1112q0 90 41 182t108 170q16 2 41 -4t39 -16q-33 -45 -56.5 -102.5t-23.5 -98.5t18.5 -68.5t71.5 -31.5q2 -29 -2 -67t-14 -60q-86 -14 -153 -60q-31 20 -50.5 57.5t-19.5 98.5zM426 1118q0 90 41 177t106 165q18 2 42 -4t38 -16q-31 -45 -55.5 -100.5t-24.5 -96.5 t20.5 -68.5t74.5 -31.5q2 -29 -2 -64t-15 -57q-43 -8 -84 -22.5t-71 -36.5q-33 20 -51.5 57t-18.5 98z" />
<glyph unicode="&#x201d;" horiz-adv-x="792" d="M629.008 1313.07q0 -89.9951 -40.998 -181.989q-40.9971 -91.9941 -107.993 -169.989q-15.999 -2 -40.9971 3.99902q-24.999 6 -38.998 15.999q32.998 44.9971 56.4961 102.494q23.499 57.4961 23.499 98.4941q0 40.9971 -18.499 68.4951q-18.499 27.499 -71.4951 31.498 q-2 28.999 1.99902 66.9961q4 37.998 14 59.9971q85.9941 13.999 152.99 59.9961q30.998 -19.999 50.4971 -57.4971q19.499 -37.4971 19.499 -98.4932zM326.026 1307.07q0 -89.9941 -40.998 -176.989q-40.9971 -86.9951 -105.993 -164.99q-17.999 -2 -41.998 4 q-23.998 6 -37.9971 15.999q30.998 44.9971 55.4961 100.494q24.499 55.4961 24.499 96.4941q0 40.9971 -20.499 68.4951q-20.499 27.499 -74.4951 31.498q-2 28.999 2 63.9961q3.99902 34.998 14.999 56.9971q42.9971 7.99902 83.9941 22.498q40.998 14.5 70.9961 36.498 q32.998 -19.999 51.4971 -56.9961q18.499 -36.998 18.499 -97.9941z" />
<glyph unicode="&#x201e;" horiz-adv-x="792" d="M629.008 47.0684q0 -89.9951 -40.998 -181.989q-40.9971 -91.9941 -107.993 -169.989q-15.999 -2 -40.9971 3.99902q-24.999 6 -38.998 15.999q32.998 44.9971 56.4961 102.494q23.499 57.4961 23.499 98.4941q0 40.9971 -18.499 68.4951q-18.499 27.499 -71.4951 31.498 q-2 28.999 1.99902 66.9961q4 37.998 14 59.9971q85.9941 13.999 152.99 59.9961q30.998 -19.999 50.4971 -57.4971q19.499 -37.4971 19.499 -98.4932zM326.026 41.0684q0 -89.9941 -40.998 -176.989q-40.9971 -86.9951 -105.993 -164.99q-17.999 -2 -41.998 4 q-23.998 6 -37.9971 15.999q30.998 44.9971 55.4961 100.494q24.499 55.4961 24.499 96.4941q0 40.9971 -20.499 68.4951q-20.499 27.499 -74.4951 31.498q-2 28.999 2 63.9961q3.99902 34.998 14.999 56.9971q42.9971 7.99902 83.9941 22.498q40.998 14.5 70.9961 36.498 q32.998 -19.999 51.4971 -56.9961q18.499 -36.998 18.499 -97.9941z" />
<glyph unicode="&#x2022;" horiz-adv-x="692" d="M123 618q0 90 62.5 148.5t164.5 58.5q53 0 94 -17t69 -46t42 -67t14 -79q0 -96 -57 -158.5t-162 -62.5q-59 0 -101 18.5t-70.5 50.5t-42 71.5t-13.5 82.5z" />
<glyph unicode="&#x2026;" horiz-adv-x="1761" d="M123 92q0 47 35 82t90 35q53 0 82.5 -36t29.5 -71q0 -61 -36.5 -89.5t-83.5 -28.5q-55 0 -86 30.5t-31 77.5zM778 92q0 47 35 82t90 35q53 0 82.5 -36t29.5 -71q0 -61 -36.5 -89.5t-83.5 -28.5q-55 0 -86 30.5t-31 77.5zM1401 92q0 47 35 82t90 35q53 0 82.5 -36 t29.5 -71q0 -61 -36.5 -89.5t-83.5 -28.5q-55 0 -86 30.5t-31 77.5z" />
<glyph unicode="&#x202f;" horiz-adv-x="382" />
<glyph unicode="&#x2039;" horiz-adv-x="614" d="M111 492q0 33 12 69q84 70 160 146l143 149q43 -4 70 -31q-23 -25 -53 -62l-58 -78q-29 -40 -52.5 -77t-35.5 -61l41 -73l48 -81l52 -81l49 -72q0 -23 -10 -41.5t-22 -28.5l-181 177q-87 86 -163 145z" />
<glyph unicode="&#x203a;" horiz-adv-x="618" d="M106 827q35 29 76 29q74 -72 150 -138l157 -134q8 -16 10.5 -31.5t2.5 -34.5l-163 -169l-157 -171q-33 20 -47 60l98.5 132t94.5 140l-47 70l-57 84l-60 85z" />
<glyph unicode="&#x2044;" horiz-adv-x="1265" d="M150 -16q-29 10 -50.5 24.5t-31.5 28.5l1048 1425q23 -6 45.5 -21.5t36.5 -31.5z" />
<glyph unicode="&#x205f;" horiz-adv-x="479" />
<glyph unicode="&#x20ac;" horiz-adv-x="1527" d="M92 469q0 29 6 61.5t17 53.5h108q-6 57 -6 118v17h-125q0 29 6 61.5t17 53.5h110q14 96 49 176q59 131 154.5 219t218.5 131t254 43q129 0 234.5 -26.5t220.5 -80.5q-16 -72 -19.5 -151.5t-3.5 -165.5q-27 -10 -51.5 -14t-56.5 -4q-4 109 -26.5 178t-62.5 109t-95.5 55.5 t-122.5 15.5q-129 0 -221.5 -47t-151 -126t-86.5 -181q-16 -63 -25 -131h572q0 -31 -4.5 -58.5t-18.5 -50.5h-205q-94 0 -194 -2q-72 0 -152 -2q2 -72 14 -137h560q0 -31 -4.5 -58.5t-18.5 -50.5h-205q-94 0 -194 -2q-51 0 -107 -2q35 -100 92 -176q68 -88 165 -138.5 t220 -50.5q98 0 200.5 33t188.5 88q12 -10 23.5 -29.5t13.5 -33.5q-61 -47 -119.5 -81t-120 -56.5t-128 -33.5t-144.5 -11q-143 0 -263 52t-206 147t-135 229q-10 29 -18 59h-154z" />
<glyph unicode="&#x2122;" horiz-adv-x="3112" d="M1280 -6q0 14 2 39.5t8 48.5q41 4 68.5 16.5t46 43t31 88t20.5 149.5l66 729q3 28 2 51q0 70 -23 102q-31 42 -117 42q-6 20 -8 44.5t-2 43.5q31 -4 74 -5.5t82 -1.5q76 0 155 7l512 -1133l447 1133q35 -4 77 -5.5t83 -1.5t77.5 1t77.5 6q0 -23 -2 -44.5t-8 -43.5 q-37 0 -65.5 -9.5t-47 -33t-25.5 -63.5q-4 -22 -4 -49q0 -24 3 -52l74 -752q8 -76 18 -125t27.5 -77.5t42 -42t61.5 -15.5q6 -23 8 -46.5t2 -43.5q-25 2 -55 3l-64 2q-33 1 -67 1h-60q-55 0 -125.5 -1t-123.5 -5q0 18 3 42.5t9 45.5q49 4 77.5 16.5t41 38t12.5 69.5t-6 111 l-74 703l-424 -1024q-35 -14 -84 -14l-477 1036l-66 -658q-6 -60 -5 -103v-31q3 -52 18.5 -82.5t45.5 -44t75 -17.5q6 -23 8 -48.5t2 -39.5q-49 4 -111.5 5t-107.5 1t-104.5 -1t-100.5 -5zM51 1083q16 72 24.5 154t8.5 154q86 -4 226.5 -5.5t295.5 -1.5h154q76 0 144.5 1 t127 2.5t101.5 3.5q0 -139 12 -308q-23 -10 -48.5 -14t-49.5 -4q-4 111 -60.5 175.5t-185.5 64.5h-99v-1045q0 -51 6.5 -85t24 -53.5t49 -28.5t80.5 -11q10 -29 10 -88q-66 4 -134 5t-134 1t-138.5 -1t-129.5 -5q0 59 10 88q49 2 81 11t50.5 28.5t25.5 53.5t7 85v1045h-104 q-80 0 -126.5 -18.5t-73 -51.5t-38.5 -76t-23 -94q-23 0 -49.5 4t-44.5 14z" />
<glyph unicode="&#xe000;" horiz-adv-x="940" d="M0 940h940v-940h-940v940z" />
<glyph unicode="&#xfb01;" horiz-adv-x="1316" d="M74 827q0 18 6 44t22 47h136v81q0 98 34.5 183.5t99 148t157 98t206.5 35.5q96 0 170 -17t139 -46q-4 -66 -5 -107t-1 -82q-29 -20 -79 -30.5t-97 0.5q0 84 -44 130t-136 46q-141 0 -200.5 -73t-59.5 -222v-145h342q66 2 139.5 10t130.5 28q25 -10 35 -28.5t10 -59.5 v-608q0 -102 28 -138t93 -40q6 -18 8 -42t2 -46q-41 4 -103.5 5t-129.5 1q-68 0 -130.5 -1t-103.5 -5q0 27 2.5 47t8.5 41q82 4 111.5 40t29.5 138v397q0 41 -6 72t-28.5 50.5t-64.5 30.5t-114 13q-31 0 -70 -2t-75.5 -5t-68.5 -8t-46 -9v-539q0 -98 31.5 -136t109.5 -42 q6 -18 8 -38.5t2 -49.5q-41 4 -106.5 5t-126.5 1h-68q-35 0 -69.5 -1t-65.5 -2t-51 -3q0 59 10 88q82 4 112 40t30 138v543q-25 10 -76 17t-88 7z" />
<glyph unicode="&#xfb02;" horiz-adv-x="1280" d="M74 825q0 55 28 93h136v81q0 121 43 209t111.5 144.5t154.5 84t172 27.5q70 0 129 -16q45 -10 76 -25l22 7q45 12 82 38q18 -6 31.5 -24.5t13.5 -57.5v-1126q0 -102 27.5 -140t93.5 -38q6 -23 8 -48.5t2 -39.5q-53 4 -112.5 5t-118.5 1t-122 -1t-114 -5q0 20 2 43.5 t9 44.5q82 0 111.5 38t29.5 140v911q-6 88 -64 134q-61 49 -170 49q-117 0 -175 -66.5t-58 -224.5v-145h209q0 -20 -4 -46t-17 -47q-109 0 -188 -24v-500q0 -66 7 -107.5t23.5 -65.5t43 -34t67.5 -12q10 -29 10 -88q-96 6 -237 6q-72 0 -140.5 -1t-109.5 -5q0 59 10 88 q82 4 112 40t30 138v547q-45 10 -89 14t-75 4z" />
<glyph unicode="&#xfb03;" horiz-adv-x="1968" d="M74 825q0 55 28 93h136v47q0 102 37.5 188t103 147.5t154 96.5t190.5 35q88 0 170 -31q74 -25 133 -78l6 6q66 63 158 99t207 36q96 0 169.5 -17t139.5 -46q-4 -66 -5 -107t-1 -82q-29 -20 -79 -30.5t-97 0.5q0 84 -44 130t-137 46q-141 0 -200.5 -73t-59.5 -222v-145 h342q66 2 139.5 10t131.5 28q25 -10 35 -28.5t10 -59.5v-608q0 -102 27.5 -138t93.5 -40q6 -18 8 -42t2 -46q-41 4 -103.5 5t-130.5 1t-130 -1t-103 -5q0 27 2 47t8 41q82 4 111.5 40t29.5 138v397q0 41 -6 72t-28.5 50.5t-64.5 30.5t-114 13q-31 0 -69.5 -2t-75.5 -5 t-68.5 -8t-46.5 -9v-539q0 -98 32 -136t110 -42q6 -18 8 -38.5t2 -49.5q-41 4 -106.5 5t-127.5 1h-67q-35 0 -70 -1t-65.5 -2t-50.5 -3q0 59 10 88q82 4 111.5 40t29.5 138v549q-45 10 -95 15t-122 5q-104 0 -161.5 -8t-98.5 -18v-502q0 -68 10 -108.5t32.5 -65.5t56.5 -34 t83 -11q10 -29 10 -88q-47 4 -116.5 5t-141.5 1h-75q-39 0 -76 -1t-68 -2t-51 -3q0 59 10 88q82 4 112 40t30 138v547q-45 10 -89 14t-75 4zM422 918h477v81q0 90 29 170q-37 63 -86 103q-63 53 -150 53q-117 0 -193.5 -69.5t-76.5 -233.5v-104z" />
<glyph unicode="&#xfb04;" horiz-adv-x="1914" d="M74 825q0 55 28 93h136v47q0 102 37.5 188t103 147.5t154 96.5t190.5 35q88 0 170 -31q72 -25 131 -74l29 25q70 57 155.5 84.5t171.5 27.5q70 0 129 -16q45 -10 76 -25q10 2 23 7q45 12 82 38q18 -6 31.5 -24.5t13.5 -57.5v-1126q0 -102 27.5 -140t92.5 -38 q6 -23 8.5 -48.5t2.5 -39.5q-53 4 -112.5 5t-119.5 1q-59 0 -121.5 -1t-113.5 -5q0 20 2 43.5t8 44.5q82 0 111.5 38t29.5 140v897q0 98 -62.5 147.5t-170.5 49.5q-117 0 -175.5 -66.5t-58.5 -224.5v-145h209q0 -20 -4 -46t-16 -47q-109 0 -189 -24v-500q0 -66 7.5 -107.5 t23.5 -65.5t43 -34t68 -12q10 -29 10 -88q-96 6 -238 6q-72 0 -140.5 -1t-108.5 -5q0 59 10 88q82 4 111.5 40t29.5 138v549q-45 10 -95 15t-122 5q-104 0 -161.5 -8t-98.5 -18v-502q0 -68 10 -108.5t32.5 -65.5t56.5 -34t83 -11q10 -29 10 -88q-47 4 -116.5 5t-141.5 1h-75 q-39 0 -76 -1t-68 -2t-51 -3q0 59 10 88q82 4 112 40t30 138v547q-45 10 -89 14t-75 4zM422 918h477v81q0 98 27 175q-35 59 -84 98q-63 53 -150 53q-117 0 -193.5 -69.5t-76.5 -233.5v-104z" />
<glyph horiz-adv-x="585" d="M209 1194q0 84 -31 113.5t-125 29.5q0 18 3 43t14 45q76 10 145.5 27.5t124.5 40.5q23 -8 32 -25.5t9 -64.5v-531q0 -66 7 -107.5t22.5 -65t39 -33t54.5 -11.5q4 -16 6 -38.5t2 -47.5q-23 2 -87.5 4t-135.5 2q-78 0 -134.5 -2t-88.5 -4q0 53 8 86q33 2 58.5 10.5t43 30 t25.5 60.5t8 102v336z" />
<glyph horiz-adv-x="788" d="M397 1483q98 0 159.5 2t90.5 2q27 -31 27 -74l-124 -132l-136 -148q53 0 106 -14.5t96 -45.5t70 -79t27 -113q0 -74 -30 -134.5t-82 -101.5t-126 -63.5t-162 -22.5q-98 0 -156.5 24.5t-80.5 45.5q-2 20 6 41.5t22 38.5q25 -16 73 -33t120 -17q96 0 158.5 43t62.5 136 q0 37 -15.5 65.5t-42 48t-59 29.5t-67.5 10q-18 0 -34.5 -2t-33.5 -8q-14 12 -25.5 35.5t-13.5 38.5l134 149q69 76 118 135h-153q-51 0 -81 -27.5t-59 -103.5q-23 0 -47 7.5t-41 17.5q12 53 16.5 127t2.5 127q41 -2 112.5 -3t167.5 -1z" />
<glyph horiz-adv-x="868" d="M635 391h96q47 0 66 -20q-14 -29 -23.5 -57.5t-13.5 -69.5h-125v-17q0 -47 5 -74.5t17.5 -42t32 -18.5t47.5 -6q4 -12 7.5 -41t3.5 -51q-18 0 -44 1t-55 3l-57 2h-109l-61 -2q-31 -2 -56.5 -3t-39.5 -1q0 23 2 52.5t6 39.5q35 2 60.5 7t42 20.5t23.5 42t7 71.5v15 q-66 -2 -119 -2q-76 -2 -132 -5.5t-101 -7.5q-37 41 -37 101l109 137l119 152l119 160l112 159q53 0 98 -23v-522zM467 391v301l-221 -301h221z" />
<glyph horiz-adv-x="823" d="M403 920q59 0 111.5 -12.5t92.5 -39t63.5 -67.5t23.5 -99q0 -86 -47 -155.5t-125 -140.5q-66 -61 -119 -117l-118 -129h252q49 0 78.5 19.5t29.5 74.5q25 2 48.5 0t41.5 -10q-2 -57 1 -113.5t14 -99.5q-10 -18 -33 -25.5t-70 -7.5q-23 0 -80 1t-110 1q-92 0 -177 -1 t-176 -1q-10 10 -14 26.5t-4 32.5l70 78l67 74l187 192q55 59 80.5 121t25.5 148q0 72 -36 122t-113 50q-72 0 -103 -45t-45 -142q-59 0 -100 15q6 41 6 85t-8 99q124 66 286 66z" />
</font>
</defs>
</svg>
