<?xml version="1.0" standalone="no"?>
<!DOCTYPE svg PUBLIC "-//W3C//DTD SVG 1.1//EN" "http://www.w3.org/Graphics/SVG/1.1/DTD/svg11.dtd" >
<svg xmlns="http://www.w3.org/2000/svg">
<metadata>
This is a custom SVG webfont generated by Font Squirrel.
Copyright   : Copyright  2009 ParaType Ltd All rights reserved
Designer    : AKorolkova OUmpeleva VYefimov
Foundry     : ParaType Ltd
Foundry URL : httpwwwparatypecom
</metadata>
<defs>
<font id="webfontTPiA2ss5" horiz-adv-x="921" >
<font-face units-per-em="2048" ascent="1577" descent="-471" />
<missing-glyph horiz-adv-x="434" />
<glyph unicode=" "  horiz-adv-x="434" />
<glyph unicode="&#x09;" horiz-adv-x="434" />
<glyph unicode="&#xa0;" horiz-adv-x="434" />
<glyph unicode="!" horiz-adv-x="505" d="M207 1434h153v-711l-30 -361h-92l-31 361v711zM180 92q0 57 28 86t75 29t74.5 -28.5t27.5 -86.5q0 -59 -27.5 -88t-74.5 -29t-75 29t-28 88z" />
<glyph unicode="&#x22;" horiz-adv-x="585" d="M362 1434h142l-53 -396h-89v396zM147 1434h142l-53 -396h-89v396z" />
<glyph unicode="#" d="M471 461h-168l-65 -342h-125l65 342h-129l27 123h125l55 286h-125l27 123h123l61 322h125l-61 -322h167l64 322h125l-62 -322h125l-28 -123h-121l-55 -286h122l-28 -123h-117l-66 -342h-126zM326 584h170l55 286h-170z" />
<glyph unicode="$" d="M403 -25q-92 2 -160.5 17.5t-113.5 44.5l47 139q35 -23 91.5 -39t135.5 -20v571q-51 33 -100 71t-87 87t-61.5 113.5t-23.5 152.5q0 135 68.5 226.5t203.5 113.5v186h123v-180q80 -4 133.5 -16t100.5 -35l-47 -133q-35 18 -78 30.5t-109 16.5v-524l103 -76q51 -39 91 -89 t64.5 -114.5t24.5 -150.5q0 -147 -72.5 -250t-210.5 -131v-191h-123v180zM496 117q72 16 115.5 76.5t43.5 162.5q0 96 -46 157.5t-113 111.5v-508zM434 1317q-84 -16 -116.5 -74.5t-32.5 -124.5q0 -88 42 -148.5t107 -109.5v457z" />
<glyph unicode="%" horiz-adv-x="1304" d="M113 1110q0 94 19.5 160.5t55 108.5t83.5 60.5t104 18.5q55 0 103 -17.5t84 -57.5t55.5 -107.5t19.5 -165.5t-19.5 -165.5t-55.5 -107.5t-84 -57.5t-103 -17.5t-103.5 17.5t-84 57.5t-55 107.5t-19.5 165.5zM246 1110q0 -133 35.5 -184.5t93.5 -51.5q29 0 52.5 10.5 t39.5 36t25.5 71.5t9.5 118q0 70 -9.5 116t-25.5 72.5t-40 37t-52 10.5q-31 0 -54.5 -10.5t-40 -37t-25.5 -72.5t-9 -116zM715 350q0 94 19.5 160.5t55 108.5t83.5 60.5t104 18.5q55 0 103 -17.5t84 -57.5t55.5 -107.5t19.5 -165.5t-19.5 -165.5t-55.5 -107.5t-84 -57.5 t-103 -17.5t-103.5 17.5t-84 57.5t-55 107.5t-19.5 165.5zM848 350q0 -133 35.5 -184.5t93.5 -51.5q29 0 52.5 10.5t39.5 36t25.5 71.5t9.5 118q0 70 -9.5 116t-25.5 72.5t-40 37t-52 10.5q-31 0 -54.5 -10.5t-40 -37t-25.5 -72.5t-9 -116zM1061 1460l96 -61l-873 -1424 l-96 62z" />
<glyph unicode="&#x26;" horiz-adv-x="1343" d="M186 385q0 82 25 154.5t64.5 135t91 114t104.5 92.5q-41 74 -71.5 151.5t-30.5 163.5q0 49 13 96t44 84t78 59.5t114 22.5q70 0 118 -20.5t77 -53t42 -74.5t13 -87q0 -88 -55 -180.5t-168 -180.5q27 -57 60.5 -119.5t71.5 -125.5l78 -122q40 -60 79 -112q37 51 69.5 137 t53.5 166l119 -47q-10 -35 -29 -84t-40.5 -99t-45 -96.5t-43.5 -76.5q68 -80 114 -124t93 -77l-92 -107q-92 53 -201 191q-29 -37 -65 -71t-80 -60.5t-98 -43t-118 -16.5q-80 0 -150.5 26t-122.5 77t-82 128t-30 179zM846 266q-47 59 -92 127l-86 135.5t-75 131t-56 116.5 q-43 -41 -80 -82t-64.5 -87t-43 -100t-15.5 -120q0 -68 20.5 -120t56 -87t82 -53t97.5 -18q39 0 78 14t72.5 36.5t60.5 50t45 56.5zM516 1196q0 -61 19.5 -120.5t50.5 -121.5q84 72 115.5 131.5t31.5 106.5q0 57 -23.5 99t-84.5 42q-57 0 -83 -39t-26 -98z" />
<glyph unicode="'" horiz-adv-x="370" d="M147 1434h142l-53 -396h-89v396z" />
<glyph unicode="(" horiz-adv-x="477" d="M375 -451q-78 98 -130 216t-85 242t-47.5 250t-14.5 241q0 113 14.5 237.5t47.5 250.5t87 247t132 225l92 -55q-66 -104 -109 -219t-68.5 -232.5t-36.5 -233.5t-11 -220q0 -98 12 -216t40 -237t71 -231.5t102 -202.5z" />
<glyph unicode=")" horiz-adv-x="479" d="M100 1458q76 -98 131.5 -216t88 -241.5t47 -249.5t14.5 -241q0 -113 -14.5 -238t-47 -250.5t-87 -246.5t-132.5 -226l-90 58q66 104 109 219t68.5 231.5t35.5 232.5t10 220q0 98 -13 216t-40.5 237.5t-69.5 233.5t-102 204z" />
<glyph unicode="*" horiz-adv-x="595" d="M221 1440l41 -78l31 -107l33 107l43 76l90 -49l-47 -82l-78 -88l112 22h86v-104h-79l-111 22l80 -90l41 -72l-88 -51l-43 78l-39 113l-31 -109l-43 -76l-90 52l47 77l72 78l-96 -22h-91v104h91l102 -22l-78 84l-45 83z" />
<glyph unicode="+" horiz-adv-x="849" d="M70 764h284v319h140v-319h284v-133h-284v-324h-140v324h-284v133z" />
<glyph unicode="," horiz-adv-x="331" d="M74 88q0 51 29.5 82t76.5 31q53 0 87 -43t34 -135q0 -68 -17.5 -122.5t-45 -95.5t-60.5 -67.5t-63 -38.5l-52 70q27 14 50.5 37.5t39 52t23.5 60.5t8 63q-41 -12 -75.5 16.5t-34.5 89.5z" />
<glyph unicode="-" horiz-adv-x="595" d="M96 655h404v-141h-404v141z" />
<glyph unicode="." horiz-adv-x="317" d="M80 92q0 57 27.5 86t74.5 29t75 -28.5t28 -86.5q0 -59 -28 -88t-75 -29t-74.5 29t-27.5 88z" />
<glyph unicode="/" horiz-adv-x="604" d="M545 1458l114 -45l-598 -1700l-118 43z" />
<glyph unicode="0" d="M78 717q0 197 24.5 338t73.5 230t121 131t164 42q98 0 171 -42t120 -131t69.5 -230.5t22.5 -337.5q0 -199 -24.5 -339t-74 -229.5t-120 -131.5t-162.5 -42q-100 0 -173 43t-120 133.5t-69.5 230.5t-22.5 335zM231 717q0 -293 55.5 -450.5t178.5 -157.5q119 0 173 144 t54 464q0 291 -52 449.5t-179 158.5q-119 0 -174.5 -143t-55.5 -465z" />
<glyph unicode="1" d="M193 137h231v998l18 120l-69 -98l-172 -139l-78 92l373 348h75v-1321h224v-137h-602v137z" />
<glyph unicode="2" d="M776 0h-663v66q39 47 89 118l104 157q54 85 106.5 180t93.5 193.5t66.5 195t25.5 184.5q0 104 -47 167.5t-141 63.5q-59 0 -115.5 -22.5t-97.5 -55.5l-58 107q57 49 136 76.5t167 27.5q152 0 231 -93t79 -245q0 -113 -34 -235.5t-86 -242.5t-115.5 -230.5t-125.5 -196.5 l-84 -90v-6l109 18h360v-137z" />
<glyph unicode="3" d="M190 156q39 -23 89.5 -35t115.5 -12q55 0 101.5 22.5t80 63.5t52 97t18.5 124q0 152 -66.5 221.5t-185.5 69.5h-123v59l238 459l80 86l-113 -15h-321v138h594v-60l-263 -489l-61 -60v-4l59 13q63 0 121 -26t98.5 -76t65.5 -123.5t25 -172.5q0 -111 -32 -196.5t-86 -144 t-127 -89.5t-155 -31q-72 0 -135 12.5t-110 35.5z" />
<glyph unicode="4" d="M883 440h-191v-440h-143v440h-508v70l543 946h108v-883h191v-133zM549 1032l20 176h-6l-61 -157l-226 -392l-77 -100l112 14h238v459z" />
<glyph unicode="5" d="M731 1434v-144h-389v-418l70 7q164 -2 258 -113t96 -317q-2 -115 -34 -203t-87 -148.5t-129 -91.5t-158 -31q-141 0 -227 39l37 131q37 -18 82 -25t104 -7q117 0 189.5 85t74.5 238q-2 158 -74.5 233.5t-201.5 75.5l-135 -10v699h524z" />
<glyph unicode="6" d="M829 432q-2 -102 -25.5 -187t-69.5 -144.5t-112.5 -92.5t-150.5 -33q-172 0 -269.5 125t-97.5 381q0 217 44.5 387t120 293t178 198t219.5 99l41 -119q-92 -25 -168 -82t-133.5 -139t-95.5 -184.5t-52 -218.5q27 55 89.5 96t154.5 41q147 0 236 -104.5t91 -315.5z M680 418q0 301 -217 301q-78 0 -133.5 -49t-77.5 -111q-4 -27 -4 -52.5t2 -47.5q-2 -68 11 -130.5t41 -111.5t70 -78.5t99 -29.5q92 0 150.5 82t58.5 227z" />
<glyph unicode="7" d="M195 0l413 1210l74 101l-98 -19h-469v142h698v-56l-471 -1378h-147z" />
<glyph unicode="8" d="M119 332q0 137 56 233.5t167 173.5q-41 31 -77 65t-62.5 77t-42 96t-15.5 123q0 166 87 262t239 96q141 0 224 -87t83 -238q0 -117 -45 -207t-141 -176q43 -31 82 -68t68.5 -83t46 -104.5t16.5 -134.5q0 -174 -93.5 -279.5t-258.5 -105.5q-80 0 -141.5 27t-104.5 74 t-65.5 112.5t-22.5 143.5zM438 682q-94 -70 -136 -156t-42 -172q0 -104 51 -174.5t150 -70.5q80 0 138 58t58 185q0 63 -18 112.5t-49 87.5t-70 69.5t-82 60.5zM494 803q70 70 106.5 140.5t36.5 156.5q0 113 -50 169t-118 56q-43 0 -77 -17.5t-56.5 -48t-34.5 -70.5t-12 -85 q0 -55 16.5 -99t45 -80t65.5 -65.5t78 -56.5z" />
<glyph unicode="9" horiz-adv-x="923" d="M94 999q0 213 91 336t272 123q172 0 267 -127t95 -389q0 -231 -43 -402t-118.5 -289t-178 -185.5t-221.5 -90.5l-39 121q197 51 305.5 206t137.5 388q-43 -59 -95.5 -83.5t-138.5 -24.5q-66 0 -126 25.5t-106 77.5t-74 131t-28 183zM244 1016q0 -145 59 -223t158 -78 q78 0 132 33.5t79 87.5q4 27 4 51v47q0 78 -13.5 148.5t-41 125t-70.5 86t-102 31.5q-96 0 -150.5 -84t-54.5 -225z" />
<glyph unicode=":" horiz-adv-x="389" d="M156 917q0 57 27.5 86t74.5 29t75 -28.5t28 -86.5q0 -59 -28 -88t-75 -29t-74.5 29t-27.5 88zM156 92q0 57 27.5 86t74.5 29t75 -28.5t28 -86.5q0 -59 -28 -88t-75 -29t-74.5 29t-27.5 88z" />
<glyph unicode=";" horiz-adv-x="442" d="M154 88q0 51 29.5 82t76.5 31q53 0 87 -43t34 -135q0 -68 -17.5 -122.5t-45 -95.5t-60.5 -67.5t-63 -38.5l-52 70q27 14 50.5 37.5t39 52t23.5 60.5t8 63q-41 -12 -75.5 16.5t-34.5 89.5zM174 917q0 57 27.5 86t74.5 29t75 -28.5t28 -86.5q0 -59 -28 -88t-75 -29 t-74.5 29t-27.5 88z" />
<glyph unicode="&#x3c;" horiz-adv-x="849" d="M74 625v59l614 457l80 -111l-391 -297l-152 -78l150 -65l401 -295l-78 -111z" />
<glyph unicode="=" horiz-adv-x="849" d="M72 934h704v-137h-704v137zM72 596h704v-137h-704v137z" />
<glyph unicode="&#x3e;" horiz-adv-x="849" d="M152 184l-78 111l401 295l150 65l-152 78l-391 297l80 111l614 -457v-59z" />
<glyph unicode="?" horiz-adv-x="731" d="M250 362q-6 90 11.5 160t48 128.5t66.5 109.5t68.5 105.5t54 114.5t21.5 136q0 94 -41 151.5t-139 57.5q-59 0 -116.5 -21.5t-102.5 -54.5l-58 115q61 41 134 67.5t178 26.5q147 0 223 -86t76 -235q0 -88 -22.5 -158t-55.5 -128t-72 -111.5t-72.5 -110t-56 -121 t-22.5 -146.5h-123zM219 92q0 57 27.5 86t75.5 29q47 0 74.5 -28.5t27.5 -86.5q0 -59 -27.5 -88t-74.5 -29t-75 29t-28 88z" />
<glyph unicode="@" horiz-adv-x="1755" d="M1157 1006h68l-84 -596q-18 -137 -11 -204t60 -67t106.5 35t95.5 102.5t67.5 166t25.5 225.5q0 145 -42 254.5t-117 183.5t-181.5 111.5t-235.5 37.5q-133 0 -249.5 -54t-202.5 -154.5t-136.5 -239.5t-50.5 -311q0 -178 46 -309.5t130 -219.5t199 -131t254 -43 q49 0 113.5 12.5t111.5 36.5l37 -114q-70 -33 -138.5 -46.5t-143.5 -13.5q-150 0 -284 47t-235.5 146.5t-161 254t-59.5 367.5q0 211 62.5 378t168 281.5t247 176t298.5 61.5q152 0 280 -45t222 -135t146.5 -223t52.5 -309q0 -141 -37 -262t-99.5 -209t-145.5 -138.5 t-177 -50.5q-39 0 -70.5 10.5t-51 35t-28 65.5t0.5 100h-9q-23 -41 -53.5 -79t-66 -67.5t-77.5 -47t-87 -17.5q-86 0 -146.5 77t-60.5 222q0 152 33.5 283t92 227t136.5 150.5t166 54.5q59 0 97 -20.5t73 -55.5zM1063 819q-27 37 -54.5 53.5t-68.5 16.5q-61 0 -114.5 -46 t-92.5 -123t-61.5 -175.5t-22.5 -202.5q0 -92 28 -146.5t93 -54.5q31 0 63.5 22.5t64.5 58.5t60.5 81t49.5 90z" />
<glyph unicode="A" horiz-adv-x="968" d="M682 401h-406l-114 -401h-152l432 1456h84l432 -1456h-159zM317 539h328l-125 442l-39 215h-4l-39 -219z" />
<glyph unicode="B" horiz-adv-x="964" d="M842 1108q0 -53 -12.5 -106.5t-39 -100.5t-66.5 -84t-97 -55v-8q49 -10 94 -34t80 -66t55.5 -102t20.5 -144q0 -111 -35 -192t-95.5 -132t-139.5 -75.5t-167 -24.5h-66q-38 0 -81 3t-85 8t-77 15v1411q61 12 144 20.5t180 8.5q70 0 139.5 -13.5t124.5 -50t89 -103 t34 -175.5zM453 125q55 0 102 17.5t83 52t56.5 85t20.5 117.5q0 84 -25.5 136.5t-66.5 81t-93.5 39t-107.5 10.5h-137v-525q12 -4 31.5 -6t43 -4t48.5 -3t45 -1zM369 797q29 0 65.5 2t61.5 6q76 31 130 99.5t54 168.5q0 68 -18.5 114t-50 72.5t-74.5 38t-91 11.5 q-53 0 -96 -3t-65 -8v-501h84z" />
<glyph unicode="C" horiz-adv-x="937" d="M881 55q-51 -43 -129 -61.5t-164 -18.5q-109 0 -201 41t-158.5 130.5t-103.5 230.5t-37 340q0 205 42 346t111.5 229t161 127t187.5 39q98 0 162.5 -14t111.5 -35l-37 -139q-41 23 -96 35t-127 12t-135 -32t-112.5 -102.5t-78 -185t-28.5 -280.5q0 -299 102.5 -449.5 t272.5 -150.5q70 0 125 19.5t94 45.5z" />
<glyph unicode="D" horiz-adv-x="1075" d="M131 1434q33 6 73 9t81 4l81 2q40 1 74 1q150 0 254.5 -51t170 -146.5t94 -228.5t28.5 -297q0 -147 -27.5 -282.5t-93 -238t-173 -163.5t-269.5 -61q-27 0 -68 1t-85 4t-81.5 5t-58.5 6v1436zM449 1309h-45q-24 0 -46 -2t-41.5 -4.5t-31.5 -4.5v-1167q8 -2 29 -3l45 -2 l45 -2q22 -1 32 -1q113 0 188.5 49t119.5 132t62.5 192.5t18.5 232.5q0 109 -16 213.5t-58 185t-114.5 131t-187.5 50.5z" />
<glyph unicode="E" horiz-adv-x="878" d="M131 1434h637v-142h-483v-485h444v-141h-444v-525h493v-141h-647v1434z" />
<glyph unicode="F" horiz-adv-x="845" d="M131 1434h637v-142h-483v-506h450v-141h-450v-645h-154v1434z" />
<glyph unicode="G" horiz-adv-x="1007" d="M526 715h396v-631q-57 -53 -147.5 -81t-182.5 -28q-115 0 -208 43t-158.5 134.5t-101.5 230.5t-36 334q0 201 43 341t115.5 229t166 130t191.5 41t165 -13t114 -36l-37 -139q-41 23 -97.5 35t-130.5 12q-72 0 -137 -31t-117.5 -101.5t-83 -185t-30.5 -282.5 q0 -307 97 -453.5t267 -146.5q106 0 177 51v418l-265 39v90z" />
<glyph unicode="H" horiz-adv-x="1097" d="M813 662h-528v-662h-154v1434h154v-631h528v631h154v-1434h-154v662z" />
<glyph unicode="I" horiz-adv-x="477" d="M162 1434h153v-1434h-153v1434z" />
<glyph unicode="J" horiz-adv-x="493" d="M190 1434h154v-1112q0 -168 -54 -255t-190 -87q-33 0 -79 8t-74 24l33 133q20 -12 45.5 -18t52.5 -6q37 0 59.5 16.5t34.5 46t15 71.5t3 95v1084z" />
<glyph unicode="K" horiz-adv-x="1009" d="M358 664h-73v-664h-154v1434h154v-668l71 29l373 639h176l-375 -619l-71 -65l84 -82l415 -668h-194z" />
<glyph unicode="L" horiz-adv-x="849" d="M821 0h-690v1434h154v-1293h536v-141z" />
<glyph unicode="M" horiz-adv-x="1304" d="M1020 942l18 217h-8l-65 -203l-289 -622h-51l-303 622l-64 203h-8l29 -217v-942h-148v1434h129l346 -705l51 -168h5l49 170l327 703h136v-1434h-154v942z" />
<glyph unicode="N" horiz-adv-x="1101" d="M350 909l-88 226h-6l23 -226v-909h-148v1456h92l531 -930l84 -215h8l-23 215v908h148v-1457h-94z" />
<glyph unicode="O" horiz-adv-x="1124" d="M88 717q0 365 117 553t356 188q129 0 219 -52t146.5 -148.5t83 -233.5t26.5 -307q0 -365 -117.5 -553.5t-357.5 -188.5q-127 0 -217 52.5t-147.5 148.5t-83 233.5t-25.5 307.5zM250 717q0 -121 17.5 -229.5t54 -190.5t96 -131t143.5 -49q154 0 233.5 147.5t79.5 452.5 q0 119 -17 227.5t-54 191.5t-96.5 132t-145.5 49q-152 0 -231.5 -147.5t-79.5 -452.5z" />
<glyph unicode="P" horiz-adv-x="923" d="M131 1419q66 18 139.5 24.5t145.5 6.5q82 0 161.5 -18.5t144 -67.5t104.5 -135t40 -219q0 -129 -37.5 -219.5t-100 -146.5t-143.5 -81.5t-167 -25.5h-27q-18 0 -38.5 1t-40 3t-27.5 4v-545h-154v1419zM424 1309q-41 0 -79 -3t-60 -10v-610q8 -4 25 -5l36 -2q18 -1 36 -1 h26q57 0 110 14.5t94 52t67 102t26 163.5q0 86 -24 143t-61.5 92t-89 49.5t-106.5 14.5z" />
<glyph unicode="Q" horiz-adv-x="1124" d="M1159 -340q-41 -14 -79 -19.5t-76 -5.5q-82 0 -161 21.5t-152 46.5l-140 46q-68 22 -129 22q-37 0 -74 -13v140q45 12 90 12q68 0 136.5 -20.5t138 -45t144.5 -45t155 -20.5q74 0 147 20v-139zM88 717q0 365 117 553t356 188q129 0 219 -52t146.5 -148.5t83 -233.5 t26.5 -307q0 -365 -117.5 -553.5t-357.5 -188.5q-127 0 -217 52.5t-147.5 148.5t-83 233.5t-25.5 307.5zM250 717q0 -121 17.5 -229.5t54 -190.5t96 -131t143.5 -49q154 0 233.5 147.5t79.5 452.5q0 119 -17 227.5t-54 191.5t-96.5 132t-145.5 49q-152 0 -231.5 -147.5 t-79.5 -452.5z" />
<glyph unicode="R" horiz-adv-x="983" d="M131 1419q68 16 148.5 23.5t148.5 7.5q80 0 151.5 -19.5t125 -65.5t85 -121t31.5 -187q0 -170 -70.5 -272.5t-187.5 -137.5l78 -76l283 -571h-179l-307 625l-153 30v-655h-154v1419zM285 758h123q117 0 184 71.5t67 219.5q0 113 -56 186.5t-167 73.5q-41 0 -85 -3 t-66 -10v-538z" />
<glyph unicode="S" horiz-adv-x="876" d="M121 190q39 -27 109.5 -50t160.5 -23q115 0 186.5 56t71.5 177q0 80 -41 139.5t-102.5 109.5t-132 98t-132 106.5t-102.5 134.5t-41 182q0 172 103.5 255t269.5 83q102 0 182 -18.5t129 -46.5l-49 -136q-37 23 -105.5 41.5t-158.5 18.5q-111 0 -164 -54.5t-53 -136.5 q0 -72 41 -127t102.5 -104t132 -99.5t132 -111.5t102.5 -139t41 -185q0 -180 -106.5 -282.5t-301.5 -102.5q-123 0 -201.5 22.5t-125.5 51.5z" />
<glyph unicode="T" horiz-adv-x="915" d="M887 1292h-352v-1292h-154v1292h-352v142h858v-142z" />
<glyph unicode="U" horiz-adv-x="1067" d="M788 1434h148v-961q0 -260 -101.5 -375.5t-287.5 -115.5q-217 0 -316.5 112.5t-99.5 345.5v994h154v-914q0 -111 14 -186.5t47 -122.5t82 -67.5t121 -20.5q135 0 187 94t52 303v914z" />
<glyph unicode="V" horiz-adv-x="948" d="M446 453l37 -220h4l41 224l267 977h157l-434 -1457h-82l-440 1457h170z" />
<glyph unicode="W" horiz-adv-x="1376" d="M373 485l24 -239h4l25 243l229 945h88l230 -947l24 -241h2l29 243l182 945h154l-320 -1457h-94l-227 945l-29 219h-6l-29 -221l-227 -943h-96l-326 1457h166z" />
<glyph unicode="X" horiz-adv-x="1024" d="M416 729l-344 705h184l223 -486l41 -121l41 121l236 486h170l-357 -691l373 -743h-180l-248 514l-47 127l-43 -127l-254 -514h-172z" />
<glyph unicode="Y" horiz-adv-x="931" d="M391 569l-381 865h180l259 -625l26 -125h4l27 129l250 621h166l-377 -863v-571h-154v569z" />
<glyph unicode="Z" horiz-adv-x="899" d="M59 141l570 1069l67 82h-637v142h781v-142l-572 -1075l-65 -76h637v-141h-781v141z" />
<glyph unicode="[" horiz-adv-x="507" d="M131 1434h320v-134h-172v-1638h172v-133h-320v1905z" />
<glyph unicode="\" horiz-adv-x="647" d="M676 -240l-123 -47l-610 1698l125 47z" />
<glyph unicode="]" horiz-adv-x="509" d="M379 -471h-320v133h172v1638h-172v134h320v-1905z" />
<glyph unicode="^" horiz-adv-x="843" d="M391 1456h62l284 -565h-153l-127 276l-37 142l-49 -144l-148 -274h-141z" />
<glyph unicode="_" horiz-adv-x="684" d="M0 -287h684v-133h-684v133z" />
<glyph unicode="`" horiz-adv-x="522" d="M399 1169h-84l-192 263v43h170z" />
<glyph unicode="a" horiz-adv-x="819" d="M111 963q59 37 144 57t179 20q86 0 138.5 -25.5t82 -69.5t38.5 -100.5t9 -117.5q0 -123 -5 -239.5t-5 -221.5q0 -78 5 -144.5t20 -125.5h-113l-35 121h-8q-31 -53 -90 -92t-160 -39q-111 0 -181.5 76.5t-70.5 211.5q0 88 30 147.5t84 96.5t129 52.5t167 15.5h41 q20 0 43 -2q6 63 6 112q0 117 -35 164t-127 47q-57 0 -124.5 -17.5t-112.5 -43.5zM555 467q-20 2 -40.5 3t-41.5 1q-49 0 -96 -8t-84 -28.5t-58.5 -55.5t-21.5 -88q0 -82 40 -127t103 -45q86 0 133.5 41t65.5 90v217z" />
<glyph unicode="b" horiz-adv-x="888" d="M121 1434h147v-488h6q84 102 224 103q158 0 236.5 -125t78.5 -396q0 -276 -105.5 -411t-297.5 -135q-94 0 -172 21.5t-117 49.5v1381zM268 150q29 -16 71 -25.5t89 -9.5q106 0 168.5 101t62.5 312q0 88 -11 159t-34.5 122t-61.5 78.5t-91 27.5q-74 0 -122 -44t-71 -119 v-602z" />
<glyph unicode="c" horiz-adv-x="729" d="M686 51q-51 -39 -116.5 -57.5t-137.5 -18.5q-98 0 -165.5 38t-109.5 109t-61.5 170t-19.5 220q0 262 93 399.5t267 137.5q80 0 137.5 -14.5t98.5 -37.5l-41 -129q-82 47 -178 47q-111 0 -167.5 -97t-56.5 -306q0 -84 12.5 -157.5t41 -128t73.5 -86t113 -31.5q53 0 99 18 t75 43z" />
<glyph unicode="d" horiz-adv-x="886" d="M766 352q0 -104 2 -189t14 -167h-100l-33 123h-8q-29 -61 -90.5 -102.5t-147.5 -41.5q-166 0 -246.5 129t-80.5 406q0 262 99 397t274 135q59 0 94 -7t75 -23v422h148v-1082zM618 862q-29 25 -64.5 36t-94.5 11q-109 0 -169.5 -98t-60.5 -303q0 -90 11.5 -163t35 -126 t61.5 -81.5t93 -28.5q147 0 188 174v579z" />
<glyph unicode="e" horiz-adv-x="845" d="M733 70q-49 -45 -125 -70t-159 -25q-96 0 -167 38t-117 109t-67.5 169t-21.5 221q0 262 96 399.5t272 137.5q57 0 113.5 -14.5t102 -57.5t73 -121t27.5 -203q0 -35 -3 -74.5t-7 -82.5h-521q0 -88 14.5 -160t45 -122t79 -77.5t119.5 -27.5q55 0 109.5 20.5t83.5 48.5z M618 618q0 12 1 25q0 135 -44 201q-47 72 -129 71q-94 0 -149 -71.5t-66 -225.5h387z" />
<glyph unicode="f" horiz-adv-x="526" d="M33 1024h125v57q0 193 55 279t188 86q53 0 96.5 -6t88.5 -27l-37 -127q-37 16 -68.5 21.5t-60.5 5.5q-41 0 -63.5 -16.5t-34 -51.5t-14.5 -89t-3 -132h213v-133h-213v-891h-147v891h-125v133z" />
<glyph unicode="g" horiz-adv-x="884" d="M766 -47q0 -199 -88 -293t-256 -94q-102 0 -168 17.5t-107 39.5l43 127q41 -18 90.5 -34.5t120.5 -16.5q125 0 171 69.5t46 233.5v76h-6q-33 -47 -84 -74t-131 -27q-166 0 -243.5 128t-77.5 403q0 264 101.5 399t299.5 135q96 0 166 -18t123 -43v-1028zM618 877 q-61 33 -157 32q-104 0 -168 -95t-64 -304q0 -86 10.5 -158.5t35 -127t62.5 -84t93 -29.5q78 0 123 41t65 122v603z" />
<glyph unicode="h" horiz-adv-x="901" d="M645 0v623q0 143 -33.5 217.5t-134.5 74.5q-72 0 -130 -51t-79 -129v-735h-147v1434h147v-506h6q41 53 101.5 87t150.5 34q68 0 118 -18.5t83 -63.5t49.5 -120t16.5 -185v-662h-148z" />
<glyph unicode="i" horiz-adv-x="444" d="M145 1024h148v-1024h-148v1024zM119 1335q0 49 27.5 80t72.5 31t75 -30t30 -81q0 -49 -30 -76.5t-75 -27.5t-72.5 28.5t-27.5 75.5z" />
<glyph unicode="j" horiz-adv-x="440" d="M147 1024h148v-1079q0 -211 -68 -304q-54 -75 -163 -75q-26 0 -56 4v133q45 0 73 18.5t43 56.5t19 94t4 132v1020zM119 1335q0 49 27.5 80t72.5 31t75 -30t30 -81q0 -49 -30 -76.5t-75 -27.5t-72.5 28.5t-27.5 75.5z" />
<glyph unicode="k" horiz-adv-x="794" d="M344 461h-76v-461h-147v1434h147v-873l68 29l239 434h170l-241 -414l-72 -65l84 -80l264 -465h-178z" />
<glyph unicode="l" horiz-adv-x="477" d="M279 244q0 -72 19 -102.5t54 -30.5q43 0 101 22l14 -119q-27 -16 -75 -26.5t-87 -10.5q-78 0 -126 48.5t-48 169.5v1239h148v-1190z" />
<glyph unicode="m" horiz-adv-x="1333" d="M600 0v608q0 82 -5 140.5t-21.5 95.5t-45 54t-75.5 17q-70 0 -118 -54t-67 -124v-737h-147v1024h104l27 -109h6q43 59 102.5 96.5t151.5 37.5q78 0 128 -34t79 -120q37 72 105.5 113t150.5 41q68 0 116 -17.5t77.5 -61.5t44 -117t14.5 -183v-670h-148v651 q0 133 -25.5 198.5t-117.5 65.5q-78 0 -124 -48t-64 -130v-737h-148z" />
<glyph unicode="n" horiz-adv-x="899" d="M645 0v625q0 154 -36 222t-128 68q-82 0 -135 -49t-78 -121v-745h-147v1024h106l27 -109h6q39 55 105.5 94.5t158.5 39.5q66 0 116 -18.5t84 -62.5t51.5 -118t17.5 -186v-664h-148z" />
<glyph unicode="o" horiz-adv-x="884" d="M76 512q0 276 95 406.5t271 130.5q188 0 277.5 -133.5t89.5 -403.5q0 -279 -96.5 -408t-270.5 -129q-188 0 -277 133.5t-89 403.5zM229 512q0 -90 11.5 -164t37 -127t66.5 -82.5t98 -29.5q106 0 159.5 95t53.5 308q0 88 -11 163t-36.5 128t-66.5 82.5t-99 29.5 q-104 0 -158.5 -96t-54.5 -307z" />
<glyph unicode="p" horiz-adv-x="890" d="M121 1024h104l23 -111h8q76 135 238 136q162 0 242.5 -121t80.5 -396q0 -129 -26.5 -232t-75.5 -176t-120 -111t-157 -38q-59 0 -94 7.5t-76 29.5v-422h-147v1434zM268 162q29 -25 65 -39t95 -14q109 0 172.5 110.5t63.5 315.5q0 86 -11.5 155.5t-36 119.5t-62.5 77.5 t-93 27.5q-150 0 -193 -182v-571z" />
<glyph unicode="q" horiz-adv-x="884" d="M766 -410h-148v494h-8q-33 -51 -83 -80t-130 -29q-162 0 -241.5 130.5t-79.5 402.5q0 264 104.5 399t302.5 135q86 0 164 -20.5t119 -42.5v-1389zM618 874q-57 35 -161 35q-106 0 -167 -98t-61 -301q0 -86 10.5 -160t34 -128t61.5 -83.5t93 -29.5q78 0 123 45t67 131v589 z" />
<glyph unicode="r" horiz-adv-x="561" d="M121 1024h104l27 -109h6q29 59 75 93t111 34q47 0 107 -18l-29 -150q-53 18 -94 19q-66 0 -106.5 -38t-53.5 -101v-754h-147v1024z" />
<glyph unicode="s" horiz-adv-x="692" d="M104 168q41 -25 97.5 -42t115.5 -17q68 0 115 33.5t47 109.5q0 63 -28.5 104t-72.5 74t-95.5 60.5t-95.5 66.5t-72.5 92t-28.5 135q0 131 70.5 198t199.5 67q84 0 145.5 -15.5t106.5 -42.5l-39 -123q-39 20 -90 33.5t-104 13.5q-74 0 -108 -30.5t-34 -96.5 q0 -51 29 -86.5t73 -65.5t95 -60.5t95 -72.5t73 -100.5t29 -146.5q0 -57 -18.5 -108.5t-56.5 -89.5t-94.5 -60.5t-131.5 -22.5q-90 0 -156 17.5t-111 46.5z" />
<glyph unicode="t" horiz-adv-x="563" d="M18 1024h125v203l148 47v-250h221v-133h-221v-610q0 -90 21.5 -130t70.5 -40q41 0 70.5 9t64.5 23l29 -116q-45 -23 -99.5 -36.5t-113.5 -13.5q-102 0 -146.5 67t-44.5 216v631h-125v133z" />
<glyph unicode="u" horiz-adv-x="888" d="M254 1024v-627q0 -156 31.5 -222t115.5 -66q43 0 77 17t60.5 46t47 65.5t32.5 75.5v711h148v-733q0 -74 5 -153t15 -138h-104l-37 143h-6q-35 -68 -100.5 -118t-163.5 -50q-66 0 -115 16.5t-84 59.5t-52.5 118t-17.5 191v664h148z" />
<glyph unicode="v" horiz-adv-x="794" d="M369 424l41 -203h4l37 207l180 596h155l-350 -1047h-71l-357 1047h168z" />
<glyph unicode="w" horiz-adv-x="1208" d="M668 1024l182 -598l37 -197h4l31 201l139 594h139l-272 -1047h-84l-207 672l-29 172h-4l-29 -174l-200 -670h-84l-281 1047h158l158 -596l24 -199h4l37 203l168 592h109z" />
<glyph unicode="x" horiz-adv-x="843" d="M330 524l-271 500h177l151 -293l41 -115l43 115l156 293h161l-272 -492l289 -532h-168l-172 322l-45 122l-47 -122l-172 -322h-162z" />
<glyph unicode="y" horiz-adv-x="770" d="M375 362l43 -198h10l31 198l155 662h150l-244 -920q-29 -111 -57.5 -207t-62 -166.5t-75.5 -110.5t-100 -40q-57 0 -100 19l25 139q29 -10 57.5 -4t54 34.5t47 85t37.5 146.5l-332 1024h168z" />
<glyph unicode="z" horiz-adv-x="737" d="M66 133l380 670l72 88h-452v133h598v-133l-383 -676l-70 -82h453v-133h-598v133z" />
<glyph unicode="{" horiz-adv-x="577" d="M219 233q0 104 -33.5 143.5t-97.5 39.5v133q63 0 97 41t34 131v506q0 96 38 152.5t124 56.5h151v-133h-79q-47 0 -66.5 -26t-19.5 -91v-500q0 -90 -34 -137t-81 -57v-13q47 -8 81 -62.5t34 -140.5v-497q0 -63 19.5 -90t68.5 -27h77v-133h-151q-162 0 -162 207v497z" />
<glyph unicode="|" horiz-adv-x="389" d="M133 1434h125v-1700h-125v1700z" />
<glyph unicode="}" horiz-adv-x="577" d="M358 -264q0 -207 -161 -207h-152v133h78q49 0 68.5 26.5t19.5 90.5v497q0 86 34 140.5t81 62.5v13q-47 10 -81 57t-34 137v500q0 66 -19.5 91.5t-66.5 25.5h-80v133h152q86 0 123.5 -56.5t37.5 -152.5v-506q0 -90 34 -131t97 -41v-133q-63 0 -97 -39t-34 -144v-497z" />
<glyph unicode="~" horiz-adv-x="849" d="M47 739q74 68 133.5 94.5t110.5 26.5q47 0 88 -17.5t78 -36.5l72 -37q36 -17 73 -17q29 0 61.5 14t67.5 53l70 -123q-66 -55 -117 -76.5t-94 -21.5q-45 0 -83 17.5t-74 39t-71.5 39t-74.5 17.5q-37 0 -79 -20.5t-93 -72.5z" />
<glyph unicode="&#xa1;" horiz-adv-x="505" d="M207 -417.912h153v710.956l-30 360.979h-92l-31 -360.979v-710.956zM180 924.006q0 -56.9971 28 -85.9951t75 -28.998t74.5 28.498t27.5 86.4951q0 58.9961 -27.5 87.9941t-74.5 28.998t-75 -28.998t-28 -87.9941z" />
<glyph unicode="&#xa2;" d="M782 55q-37 -31 -87 -49t-103 -24v-187h-133v185q-84 12 -141.5 55t-93.5 111.5t-52 161.5t-16 204q0 233 77.5 368.5t225.5 161.5v187h133v-182q55 -4 98 -16.5t78 -33.5l-39 -129q-33 18 -70.5 29.5t-78.5 15.5v-804q51 4 92 22.5t69 40.5zM309 512q0 -74 9.5 -138.5 t30 -115.5t53 -88t79.5 -51v788q-88 -23 -130 -119t-42 -276z" />
<glyph unicode="&#xa3;" d="M86 780h113q-20 59 -34.5 128t-14.5 161q0 199 93 294t253 95q100 0 173.5 -16.5t125.5 -40.5l-50 -135q-39 20 -99 35.5t-146 15.5q-94 0 -145.5 -63.5t-51.5 -190.5q0 -86 17.5 -152.5t39.5 -130.5h261v-133h-213q14 -47 23 -97t9 -116q0 -59 -17 -128.5t-48 -112.5 l-80 -72v-8l121 28h413v-141h-743v141h4q51 2 88 27t61.5 64.5t36 90t11.5 99.5q0 70 -12.5 122t-28.5 103h-160v133z" />
<glyph unicode="&#xa4;" d="M94 1186l142 -137l38 -64q76 59 187 59q53 0 101 -15t85 -44l39 64l143 137l86 -88l-137 -142l-63 -38q57 -80 57 -185q0 -115 -57 -186l63 -39l137 -141l-86 -88l-143 139l-37 61q-80 -57 -188 -57q-111 0 -187 57l-38 -61l-142 -139l-88 88l139 141l62 39 q-57 76 -57 186q0 53 15 99.5t42 85.5l-62 38l-139 142zM276 733q0 -84 51.5 -138t133.5 -54t134 54t52 138q0 80 -52 135.5t-134 55.5t-133.5 -55.5t-51.5 -135.5z" />
<glyph unicode="&#xa5;" d="M182 668h162l-338 766h180l258 -625l27 -125h4l27 129l250 621h166l-336 -766h163v-119h-204v-146h204v-118h-204v-285h-154v285h-205v118h205v146h-205v119z" />
<glyph unicode="&#xa6;" horiz-adv-x="387" d="M131 436h125v-702h-125v702zM256 731h-125v703h125v-703z" />
<glyph unicode="&#xa7;" horiz-adv-x="829" d="M92 723q0 63 26.5 125.5t74.5 109.5l69 31q-45 35 -76.5 84t-31.5 135q0 109 68.5 179.5t203.5 70.5q86 0 149.5 -16.5t108.5 -38.5l-37 -127q-43 20 -95 34.5t-110 14.5q-74 0 -107.5 -35t-33.5 -86q0 -53 33 -86t81 -58.5t104 -50t104.5 -61.5t81 -93t32.5 -144 q0 -63 -24.5 -128t-71.5 -112l-74 -29q43 -33 76 -83t33 -134q0 -123 -77 -186.5t-202 -63.5q-86 0 -147.5 15.5t-106.5 44.5l39 125q39 -23 90.5 -37t108.5 -14q147 0 147 124q0 49 -32.5 81t-80.5 57.5t-104.5 50t-104.5 62.5t-81 94.5t-33 144.5zM590 707 q0 49 -19.5 81.5t-52.5 56t-75 43.5l-87 40q-49 -29 -82.5 -78t-33.5 -123q0 -47 19.5 -81t52 -59.5t74.5 -44.5l87 -40q45 29 81 84t36 121z" />
<glyph unicode="&#xa8;" horiz-adv-x="747" d="M123 1337q0 47 23.5 74t64.5 27t64.5 -27t23.5 -74q0 -43 -23.5 -69.5t-64.5 -26.5t-64.5 26.5t-23.5 69.5zM449 1337q0 47 23.5 74t64.5 27t64.5 -27t23.5 -74q0 -43 -23.5 -69.5t-64.5 -26.5t-64.5 26.5t-23.5 69.5z" />
<glyph unicode="&#xa9;" horiz-adv-x="1419" d="M102 600q0 143 48.5 256t131.5 190.5t193.5 119.5t235.5 42t235.5 -42t193.5 -119.5t131 -190.5t48 -256t-48 -256t-131 -191.5t-193.5 -119.5t-235.5 -41q-139 0 -251 41t-192 119.5t-123 191.5t-43 256zM225 600q0 -119 38 -211t103.5 -154.5t153.5 -95.5t191 -33 q100 0 189 33t154.5 95.5t103.5 154.5t38 211t-38 211t-103.5 154.5t-154.5 95.5t-189 33q-102 0 -190.5 -33t-154 -95.5t-103.5 -154.5t-38 -211zM913 317q-41 -23 -90 -35t-114 -12q-139 0 -213 89.5t-74 240.5q0 158 79 243t208 85q63 0 102 -12.5t90 -34.5l-45 -113 q-39 18 -72.5 26.5t-58.5 8.5q-72 0 -114 -46t-42 -157q0 -203 170 -203q78 0 138 33z" />
<glyph unicode="&#xaa;" horiz-adv-x="647" d="M106 1395q43 23 112 39t155 16q109 0 147.5 -53.5t40.5 -153.5q-2 -141 -8 -258t16 -207h-102l-25 86h-6q-20 -35 -60 -64.5t-108 -29.5q-92 0 -143 52t-51 143q0 68 28.5 112.5t77.5 71.5t113.5 36t140.5 5q4 82 -13.5 116.5t-82.5 34.5q-59 0 -111.5 -13t-87.5 -30z M293 881q61 0 93 29.5t48 60.5v116q-43 2 -84 1t-73.5 -11t-53 -33.5t-20.5 -66.5q0 -41 22.5 -68.5t67.5 -27.5z" />
<glyph unicode="&#xab;" horiz-adv-x="790" d="M365 530l260 467l98 -67l-164 -314l-78 -84l78 -73l174 -307l-98 -70zM59 530l265 471l102 -69l-168 -316l-78 -84l78 -73l180 -309l-104 -72z" />
<glyph unicode="&#xac;" horiz-adv-x="849" d="M74 801h702v-391h-133v249h-569v142z" />
<glyph unicode="&#xad;" horiz-adv-x="595" d="M96 655h404v-141h-404v141z" />
<glyph unicode="&#xae;" horiz-adv-x="1210" d="M147 1004q0 111 37 195.5t99.5 143t145.5 88t175 29.5q96 0 180 -29.5t145.5 -88t97.5 -143.5t36 -195q0 -111 -37 -197t-99.5 -144.5t-145.5 -88t-177 -29.5q-96 0 -179 29.5t-144.5 88t-97.5 144.5t-36 197zM258 1004q0 -90 27.5 -157t75 -112t109.5 -66.5t134 -21.5 q76 0 139.5 21.5t109.5 65.5t72.5 110.5t26.5 159.5q0 88 -27.5 154.5t-74.5 111.5t-110.5 66.5t-135.5 21.5q-76 0 -139.5 -21.5t-109.5 -66.5t-71.5 -111.5t-25.5 -154.5zM426 1227q29 8 79 13t95 5q72 0 124 -30.5t52 -104.5q0 -55 -34.5 -85t-88.5 -34l49 -22l127 -191 h-106l-123 180l-84 27v-207h-90v449zM580 1167q-16 0 -35 -1t-29 -7v-123h59q104 0 105 70q0 61 -100 61z" />
<glyph unicode="&#xaf;" horiz-adv-x="743" d="M123 1317h498v-123h-498v123z" />
<glyph unicode="&#xb0;" horiz-adv-x="700" d="M127 1169q0 129 65.5 209t174.5 80q106 0 173.5 -74.5t67.5 -214.5q0 -139 -67.5 -213.5t-173.5 -74.5q-109 0 -174.5 74.5t-65.5 213.5zM244 1169q0 -80 33.5 -130t89.5 -50q55 0 90 50.5t35 129.5q0 80 -35 130.5t-90 50.5t-89 -50.5t-34 -130.5z" />
<glyph unicode="&#xb1;" horiz-adv-x="849" d="M72 961h284v317h138v-317h284v-138h-284v-215h-138v215h-284v138zM72 506h706v-137h-706v137z" />
<glyph unicode="&#xb2;" horiz-adv-x="675" d="M547 1423q0 -66 -17.5 -128t-47 -122.5t-69.5 -118.5l-83 -116l-76 -66v-4l94 31h230v-121h-488v66q43 43 99.5 109.5t107.5 142t86 155.5t35 152q0 61 -32 94t-79 33q-45 0 -87 -14.5t-70 -34.5l-41 106q41 33 101 49.5t120 16.5q104 0 160.5 -59.5t56.5 -170.5z" />
<glyph unicode="&#xb3;" horiz-adv-x="675" d="M289 881q78 0 117.5 42t37.5 117q2 66 -33.5 107t-119.5 41h-90v47l157 244l60 55l-84 -12h-215v116h432v-65l-168 -258l-43 -35v-6l41 6q92 0 144.5 -64.5t49.5 -175.5q2 -125 -74.5 -200.5t-199.5 -75.5q-59 0 -104 10t-80 27l26 114q31 -16 67 -25t79 -9z" />
<glyph unicode="&#xb4;" horiz-adv-x="501" d="M219 1475h160v-43l-168 -263h-88z" />
<glyph unicode="&#xb5;" d="M256 1024v-618q0 -147 42 -222t138 -75q86 0 143.5 51t84.5 137v727h147v-690q0 -84 4 -169t21 -165h-105l-47 127h-6q-33 -66 -98.5 -109t-159.5 -43q-76 0 -118 27t-71 68h-10l37 -207v-273h-149v1434h147z" />
<glyph unicode="&#x3bc;" d="M256 1024v-618q0 -147 42 -222t138 -75q86 0 143.5 51t84.5 137v727h147v-690q0 -84 4 -169t21 -165h-105l-47 127h-6q-33 -66 -98.5 -109t-159.5 -43q-76 0 -118 27t-71 68h-10l37 -207v-273h-149v1434h147z" />
<glyph unicode="&#xb6;" horiz-adv-x="825" d="M569 1434h125v-1700h-125v1700zM303 635q-55 0 -99 31.5t-77 87t-50.5 128t-17.5 154.5q0 80 19.5 153t56.5 127t89 86t120 32h84v-1700h-125v901z" />
<glyph unicode="&#xb7;" horiz-adv-x="436" d="M117 604q0 57 27.5 86t74.5 29t75 -28.5t28 -86.5q0 -59 -28 -88t-75 -29t-74.5 29t-27.5 88z" />
<glyph unicode="&#xb8;" horiz-adv-x="536" d="M281 -88q133 -31 133 -154q0 -47 -20.5 -86t-59.5 -63.5t-92.5 -31.5t-118.5 5l12 99q78 -12 109.5 3t31.5 56q0 57 -141 76l82 184h102z" />
<glyph unicode="&#xb9;" horiz-adv-x="675" d="M131 895h172v526l12 74l-47 -57l-121 -82l-55 86l256 211h84v-758h154v-117h-455v117z" />
<glyph unicode="&#xba;" horiz-adv-x="661" d="M70 1110q0 94 19.5 160.5t55 108.5t83.5 60.5t104 18.5q55 0 103 -17.5t84 -57.5t55.5 -107.5t19.5 -165.5t-19.5 -165.5t-55.5 -107.5t-84 -57.5t-103 -17.5t-103.5 17.5t-84 57.5t-55 107.5t-19.5 165.5zM203 1110q0 -133 35.5 -184.5t93.5 -51.5q29 0 52.5 10.5 t39.5 36t25.5 71.5t9.5 118q0 70 -9.5 116t-25.5 72.5t-40 37t-52 10.5q-31 0 -54.5 -10.5t-40 -37t-25.5 -72.5t-9 -116z" />
<glyph unicode="&#xbb;" horiz-adv-x="790" d="M426 549l-260 -467l-100 65l165 316l78 84l-78 74l-174 309l99 67zM731 549l-264 -471l-105 67l170 318l78 84l-78 74l-180 311l105 69z" />
<glyph unicode="&#xbc;" horiz-adv-x="1398" d="M1035 1460l100 -55l-786 -1430l-103 58zM1302 197h-133v-197h-125v197h-338v69l371 615h92v-570h133v-114zM1044 567l14 109h-8l-37 -102l-120 -209l-56 -62l84 8h123v256zM276 1219l12 73l-45 -59l-120 -84l-54 90l254 209h84v-875h-131v646z" />
<glyph unicode="&#xbd;" horiz-adv-x="1435" d="M1035 1460l100 -55l-786 -1430l-103 58zM1311 645q0 -66 -17.5 -128t-47 -122.5t-69.5 -118.5l-83 -116l-76 -66v-4l94 31h230v-121h-488v66q43 43 99.5 109.5t107.5 142t86 155.5t35 152q0 61 -32 94t-79 33q-45 0 -87 -14.5t-70 -34.5l-41 106q41 33 101 49.5t120 16.5 q104 0 160.5 -59.5t56.5 -170.5zM276 1219l12 73l-45 -59l-120 -84l-54 90l254 209h84v-875h-131v646z" />
<glyph unicode="&#xbe;" horiz-adv-x="1454" d="M1092 1460l100 -55l-786 -1430l-103 58zM1360 197h-133v-197h-125v197h-338v69l371 615h92v-570h133v-114zM1102 567l14 109h-8l-37 -102l-120 -209l-56 -62l84 8h123v256zM269 676q78 0 117.5 42t37.5 117q2 66 -33.5 107t-119.5 41h-90v47l157 244l60 55l-84 -12h-215 v116h432v-65l-168 -258l-43 -35v-6l41 6q92 0 144.5 -64.5t49.5 -175.5q2 -125 -74.5 -200.5t-199.5 -75.5q-59 0 -104 10t-80 27l26 114q31 -16 67 -25t79 -9z" />
<glyph unicode="&#xbf;" horiz-adv-x="731" d="M481.016 662.022q5.99902 -89.9951 -11.5 -159.99q-17.499 -69.9961 -47.9971 -128.492q-30.498 -58.4971 -66.4951 -109.493q-35.998 -50.9971 -68.4961 -105.494q-32.498 -54.4961 -53.9971 -114.493q-21.499 -59.9961 -21.499 -135.991q0 -93.9941 40.998 -151.491 q40.9971 -57.4961 138.991 -57.4961q58.9971 0 116.493 21.498q57.4961 21.499 102.494 54.4971l57.9961 -114.993q-60.9961 -40.9971 -133.992 -67.4961q-72.9951 -26.498 -177.989 -26.498q-146.99 0 -222.986 85.9951q-75.9951 85.9941 -75.9951 234.985 q0 87.9951 22.499 157.99q22.498 69.9961 55.4961 127.992q32.998 57.9971 71.9961 111.493q38.9971 53.4971 72.4951 109.993q33.498 56.4971 55.9971 120.993q22.498 64.4961 22.498 146.491h122.993zM512.014 932.006q0 -56.9971 -27.499 -85.9951 q-27.498 -28.998 -75.4951 -28.998q-46.9971 0 -74.4951 28.498q-27.499 28.498 -27.499 86.4951q0 58.9961 27.499 87.9941q27.498 28.998 74.4951 28.998t74.9951 -28.998q27.999 -28.998 27.999 -87.9941z" />
<glyph unicode="&#xc0;" horiz-adv-x="968" d="M682 401h-406l-114 -401h-152l432 1456h84l432 -1456h-159zM317 539h328l-125 442l-39 215h-4l-39 -219zM618 1540h-133l-260 199v43h203z" />
<glyph unicode="&#xc1;" horiz-adv-x="968" d="M682 401h-406l-114 -401h-152l432 1456h84l432 -1456h-159zM317 539h328l-125 442l-39 215h-4l-39 -219zM536 1782h203v-43l-268 -199h-125z" />
<glyph unicode="&#xc2;" horiz-adv-x="968" d="M682 401h-406l-114 -401h-152l432 1456h84l432 -1456h-159zM317 539h328l-125 442l-39 215h-4l-39 -219zM436 1782h102l209 -209v-43h-135l-96 100l-31 72l-31 -70l-106 -102h-131v45z" />
<glyph unicode="&#xc3;" horiz-adv-x="968" d="M682 401h-406l-114 -401h-152l432 1456h84l432 -1456h-159zM317 539h328l-125 442l-39 215h-4l-39 -219zM205 1597q57 70 105 95.5t91 25.5q33 0 63 -10t57 -21l54 -22q26 -10 52 -10q23 0 44 8t44 33l53 -76q-49 -57 -92 -77.5t-80 -20.5q-31 0 -59.5 10t-56.5 21 l-54 22q-27 10 -55 10q-29 0 -56.5 -12t-60.5 -47z" />
<glyph unicode="&#xc4;" horiz-adv-x="968" d="M682 401h-406l-114 -401h-152l432 1456h84l432 -1456h-159zM317 539h328l-125 442l-39 215h-4l-39 -219zM227 1626q0 43 25.5 69.5t70.5 26.5q43 0 68.5 -26.5t25.5 -69.5t-25.5 -68.5t-68.5 -25.5q-45 0 -70.5 25.5t-25.5 68.5zM550 1626q0 43 26 69.5t69 26.5 q45 0 70.5 -26.5t25.5 -69.5t-25.5 -68.5t-70.5 -25.5q-43 0 -69 25.5t-26 68.5z" />
<glyph unicode="&#xc5;" horiz-adv-x="968" d="M303 1573q0 76 43 125t141 47q88 2 136.5 -42t48.5 -130q0 -63 -33 -107.5t-98 -58.5l417 -1407h-159l-117 401h-406l-114 -401h-152l418 1407q-61 16 -93 58t-32 108zM317 539h328l-125 442l-39 215h-4l-39 -219zM414 1573q0 -37 17.5 -60.5t55.5 -23.5q74 0 74 84 q0 88 -74 90q-73 -2 -73 -90z" />
<glyph unicode="&#xc6;" horiz-adv-x="1398" d="M645 1206l-53 -200l-211 -461h270v661h-6zM651 408h-338l-184 -408h-166l686 1434h641v-142h-485v-485h444v-141h-444v-525h493v-141h-647v408z" />
<glyph unicode="&#xc7;" horiz-adv-x="937" d="M881 55q-43 -37 -106.5 -55t-135.5 -23l-29 -65q133 -31 133 -154q0 -80 -58 -132t-157 -52q-41 0 -75 8l14 80q47 -4 74.5 2t42 18.5t18.5 28t4 29.5q0 57 -141 76l72 164q-98 8 -181.5 54t-142.5 135t-92 224t-33 324q0 205 42 346t111.5 229t161 127t187.5 39 q98 0 162.5 -14t111.5 -35l-37 -139q-41 23 -96 35t-127 12t-135 -32t-112.5 -102.5t-78 -185t-28.5 -280.5q0 -299 102.5 -448.5t272.5 -149.5q70 0 125 19.5t94 45.5z" />
<glyph unicode="&#xc8;" horiz-adv-x="878" d="M131 1434h637v-142h-483v-485h444v-141h-444v-525h493v-141h-647v1434zM547 1540h-133l-260 199v43h203z" />
<glyph unicode="&#xc9;" horiz-adv-x="878" d="M131 1434h637v-142h-483v-485h444v-141h-444v-525h493v-141h-647v1434zM528 1782h203v-43l-268 -199h-125z" />
<glyph unicode="&#xca;" horiz-adv-x="878" d="M131 1434h637v-142h-483v-485h444v-141h-444v-525h493v-141h-647v1434zM393 1782h102l209 -209v-43h-135l-96 100l-31 72l-31 -70l-106 -102h-131v45z" />
<glyph unicode="&#xcb;" horiz-adv-x="878" d="M131 1434h637v-142h-483v-485h444v-141h-444v-525h493v-141h-647v1434zM184 1626q0 43 25.5 69.5t70.5 26.5q43 0 68.5 -26.5t25.5 -69.5t-25.5 -68.5t-68.5 -25.5q-45 0 -70.5 25.5t-25.5 68.5zM507 1626q0 43 26 69.5t69 26.5q45 0 70.5 -26.5t25.5 -69.5t-25.5 -68.5 t-70.5 -25.5q-43 0 -69 25.5t-26 68.5z" />
<glyph unicode="&#xcc;" horiz-adv-x="477" d="M162 1434h153v-1434h-153v1434zM391 1540h-133l-260 199v43h203z" />
<glyph unicode="&#xcd;" horiz-adv-x="477" d="M162 1434h153v-1434h-153v1434zM288 1782h203v-43l-268 -199h-125z" />
<glyph unicode="&#xce;" horiz-adv-x="477" d="M162 1434h153v-1434h-153v1434zM192 1782h102l209 -209v-43h-135l-96 100l-31 72l-31 -70l-106 -102h-131v45z" />
<glyph unicode="&#xcf;" horiz-adv-x="477" d="M162 1434h153v-1434h-153v1434zM-16 1626q0 43 25.5 69.5t70.5 26.5q43 0 68.5 -26.5t25.5 -69.5t-25.5 -68.5t-68.5 -25.5q-45 0 -70.5 25.5t-25.5 68.5zM307 1626q0 43 26 69.5t69 26.5q45 0 70.5 -26.5t25.5 -69.5t-25.5 -68.5t-70.5 -25.5q-43 0 -69 25.5t-26 68.5z " />
<glyph unicode="&#xd0;" horiz-adv-x="1087" d="M-2 803h145v631q33 6 73 9t81 4l81 2q40 1 75 1q150 0 254 -51t169.5 -146.5t94 -228.5t28.5 -297q0 -147 -27.5 -282.5t-93 -238t-173 -163.5t-269.5 -61q-27 0 -67.5 1t-84.5 4t-82 5t-59 6v686h-145v119zM461 1309h-44q-24 0 -46.5 -2t-42 -4.5t-31.5 -4.5v-495h240 v-119h-240v-553q8 -2 30 -3l45 -2l45 -2q22 -1 32 -1q113 0 188.5 49t119.5 132t62.5 192.5t18.5 232.5q0 109 -16.5 213.5t-58.5 185t-114.5 131t-187.5 50.5z" />
<glyph unicode="&#xd1;" horiz-adv-x="1101" d="M350 909l-88 226h-6l23 -226v-909h-148v1456h92l531 -930l84 -215h8l-23 215v908h148v-1457h-94zM277 1597q57 70 105 95.5t91 25.5q33 0 63 -10t57 -21l54 -22q26 -10 52 -10q23 0 44 8t44 33l53 -76q-49 -57 -92 -77.5t-80 -20.5q-31 0 -59.5 10t-56.5 21l-54 22 q-27 10 -55 10q-29 0 -56.5 -12t-60.5 -47z" />
<glyph unicode="&#xd2;" horiz-adv-x="1124" d="M88 717q0 365 117 553t356 188q129 0 219 -52t146.5 -148.5t83 -233.5t26.5 -307q0 -365 -117.5 -553.5t-357.5 -188.5q-127 0 -217 52.5t-147.5 148.5t-83 233.5t-25.5 307.5zM250 717q0 -121 17.5 -229.5t54 -190.5t96 -131t143.5 -49q154 0 233.5 147.5t79.5 452.5 q0 119 -17 227.5t-54 191.5t-96.5 132t-145.5 49q-152 0 -231.5 -147.5t-79.5 -452.5zM682 1540h-133l-260 199v43h203z" />
<glyph unicode="&#xd3;" horiz-adv-x="1124" d="M88 717q0 365 117 553t356 188q129 0 219 -52t146.5 -148.5t83 -233.5t26.5 -307q0 -365 -117.5 -553.5t-357.5 -188.5q-127 0 -217 52.5t-147.5 148.5t-83 233.5t-25.5 307.5zM250 717q0 -121 17.5 -229.5t54 -190.5t96 -131t143.5 -49q154 0 233.5 147.5t79.5 452.5 q0 119 -17 227.5t-54 191.5t-96.5 132t-145.5 49q-152 0 -231.5 -147.5t-79.5 -452.5zM686 1782h203v-43l-268 -199h-125z" />
<glyph unicode="&#xd4;" horiz-adv-x="1124" d="M88 717q0 365 117 553t356 188q129 0 219 -52t146.5 -148.5t83 -233.5t26.5 -307q0 -365 -117.5 -553.5t-357.5 -188.5q-127 0 -217 52.5t-147.5 148.5t-83 233.5t-25.5 307.5zM250 717q0 -121 17.5 -229.5t54 -190.5t96 -131t143.5 -49q154 0 233.5 147.5t79.5 452.5 q0 119 -17 227.5t-54 191.5t-96.5 132t-145.5 49q-152 0 -231.5 -147.5t-79.5 -452.5zM512 1782h102l209 -209v-43h-135l-96 100l-31 72l-31 -70l-106 -102h-131v45z" />
<glyph unicode="&#xd5;" horiz-adv-x="1124" d="M88 717q0 365 117 553t356 188q129 0 219 -52t146.5 -148.5t83 -233.5t26.5 -307q0 -365 -117.5 -553.5t-357.5 -188.5q-127 0 -217 52.5t-147.5 148.5t-83 233.5t-25.5 307.5zM250 717q0 -121 17.5 -229.5t54 -190.5t96 -131t143.5 -49q154 0 233.5 147.5t79.5 452.5 q0 119 -17 227.5t-54 191.5t-96.5 132t-145.5 49q-152 0 -231.5 -147.5t-79.5 -452.5zM285 1597q57 70 105 95.5t91 25.5q33 0 63 -10t57 -21l54 -22q26 -10 52 -10q23 0 44 8t44 33l53 -76q-49 -57 -92 -77.5t-80 -20.5q-31 0 -59.5 10t-56.5 21l-54 22q-27 10 -55 10 q-29 0 -56.5 -12t-60.5 -47z" />
<glyph unicode="&#xd6;" horiz-adv-x="1124" d="M88 717q0 365 117 553t356 188q129 0 219 -52t146.5 -148.5t83 -233.5t26.5 -307q0 -365 -117.5 -553.5t-357.5 -188.5q-127 0 -217 52.5t-147.5 148.5t-83 233.5t-25.5 307.5zM250 717q0 -121 17.5 -229.5t54 -190.5t96 -131t143.5 -49q154 0 233.5 147.5t79.5 452.5 q0 119 -17 227.5t-54 191.5t-96.5 132t-145.5 49q-152 0 -231.5 -147.5t-79.5 -452.5zM303 1626q0 43 25.5 69.5t70.5 26.5q43 0 68.5 -26.5t25.5 -69.5t-25.5 -68.5t-68.5 -25.5q-45 0 -70.5 25.5t-25.5 68.5zM626 1626q0 43 26 69.5t69 26.5q45 0 70.5 -26.5t25.5 -69.5 t-25.5 -68.5t-70.5 -25.5q-43 0 -69 25.5t-26 68.5z" />
<glyph unicode="&#xd7;" horiz-adv-x="849" d="M213 1051l213 -250l215 250l100 -95l-223 -262l223 -266l-100 -92l-215 250l-215 -252l-102 92l227 268l-225 262z" />
<glyph unicode="&#xd8;" horiz-adv-x="1124" d="M88 717q0 365 117 553t356 188q92 0 165 -27.5t126 -78.5l61 108l99 -55l-84 -150q57 -98 82.5 -233t25.5 -305q0 -365 -117.5 -553.5t-357.5 -188.5q-178 0 -287 103l-55 -103l-100 58l78 141q-57 98 -83 234.5t-26 308.5zM250 717q0 -100 11 -191.5t36 -169.5l471 844 q-37 55 -88 86t-119 31q-152 0 -231.5 -147.5t-79.5 -452.5zM874 717q0 98 -11 188t-36 166l-469 -844q37 -53 87.5 -81.5t115.5 -28.5q154 0 233.5 147.5t79.5 452.5z" />
<glyph unicode="&#xd9;" horiz-adv-x="1067" d="M788 1434h148v-961q0 -260 -101.5 -375.5t-287.5 -115.5q-217 0 -316.5 112.5t-99.5 345.5v994h154v-914q0 -111 14 -186.5t47 -122.5t82 -67.5t121 -20.5q135 0 187 94t52 303v914zM668 1540h-133l-260 199v43h203z" />
<glyph unicode="&#xda;" horiz-adv-x="1067" d="M788 1434h148v-961q0 -260 -101.5 -375.5t-287.5 -115.5q-217 0 -316.5 112.5t-99.5 345.5v994h154v-914q0 -111 14 -186.5t47 -122.5t82 -67.5t121 -20.5q135 0 187 94t52 303v914zM637 1782h203v-43l-268 -199h-125z" />
<glyph unicode="&#xdb;" horiz-adv-x="1067" d="M788 1434h148v-961q0 -260 -101.5 -375.5t-287.5 -115.5q-217 0 -316.5 112.5t-99.5 345.5v994h154v-914q0 -111 14 -186.5t47 -122.5t82 -67.5t121 -20.5q135 0 187 94t52 303v914zM492 1782h102l209 -209v-43h-135l-96 100l-31 72l-31 -70l-106 -102h-131v45z" />
<glyph unicode="&#xdc;" horiz-adv-x="1067" d="M788 1434h148v-961q0 -260 -101.5 -375.5t-287.5 -115.5q-217 0 -316.5 112.5t-99.5 345.5v994h154v-914q0 -111 14 -186.5t47 -122.5t82 -67.5t121 -20.5q135 0 187 94t52 303v914zM279 1626q0 43 25.5 69.5t70.5 26.5q43 0 68.5 -26.5t25.5 -69.5t-25.5 -68.5 t-68.5 -25.5q-45 0 -70.5 25.5t-25.5 68.5zM602 1626q0 43 26 69.5t69 26.5q45 0 70.5 -26.5t25.5 -69.5t-25.5 -68.5t-70.5 -25.5q-43 0 -69 25.5t-26 68.5z" />
<glyph unicode="&#xdd;" horiz-adv-x="931" d="M391 569l-381 865h180l259 -625l26 -125h4l27 129l250 621h166l-377 -863v-571h-154v569zM577 1782h203v-43l-268 -199h-125z" />
<glyph unicode="&#xde;" horiz-adv-x="925" d="M133 1434h154v-160q63 6 131 6q82 0 161.5 -19.5t144 -68.5t104.5 -135t40 -219q0 -129 -37.5 -219.5t-100 -145.5t-143.5 -80.5t-167 -25.5h-27q-18 0 -38.5 1t-40 3t-27.5 4v-375h-154v1434zM287 516q8 -4 25.5 -5t36 -3t35.5 -2h26q57 0 110 14.5t94 52t67 102 t26 165.5q0 84 -24 141t-61.5 93t-89 51.5t-106.5 15.5q-41 0 -79 -2t-60 -9v-614z" />
<glyph unicode="&#xdf;" horiz-adv-x="999" d="M158 1024v51q0 203 85 287t230 84q68 0 126 -18.5t102 -54.5t69 -88t25 -120t-33 -116t-71 -86.5t-70.5 -77.5t-32.5 -88q0 -47 25.5 -80t63.5 -61.5t83 -58.5t83 -71t63.5 -99t25.5 -144q0 -57 -20.5 -112.5t-59.5 -98.5t-96.5 -70t-132.5 -27q-76 0 -124 12.5t-93 41.5 l40 125q43 -25 75 -36.5t89 -11.5q70 0 122 47.5t52 125.5q0 63 -25.5 105t-64.5 73.5t-83 59.5t-83 63.5t-64.5 85t-25.5 125.5q0 68 33 114.5t72 86.5t71.5 79t32.5 88q0 35 -15.5 63.5t-40 48t-54 31t-60.5 11.5q-45 0 -77.5 -13.5t-53 -46t-31 -89t-10.5 -142.5v-1022 h-147v891h-125v133h125z" />
<glyph unicode="&#xe0;" horiz-adv-x="819" d="M111 963q59 37 144 57t179 20q86 0 138.5 -25.5t82 -69.5t38.5 -100.5t9 -117.5q0 -123 -5 -239.5t-5 -221.5q0 -78 5 -144.5t20 -125.5h-113l-35 121h-8q-31 -53 -90 -92t-160 -39q-111 0 -181.5 76.5t-70.5 211.5q0 88 30 147.5t84 96.5t129 52.5t167 15.5h41 q20 0 43 -2q6 63 6 112q0 117 -35 164t-127 47q-57 0 -124.5 -17.5t-112.5 -43.5zM555 467q-20 2 -40.5 3t-41.5 1q-49 0 -96 -8t-84 -28.5t-58.5 -55.5t-21.5 -88q0 -82 40 -127t103 -45q86 0 133.5 41t65.5 90v217zM499 1169h-84l-192 263v43h170z" />
<glyph unicode="&#xe1;" horiz-adv-x="819" d="M111 963q59 37 144 57t179 20q86 0 138.5 -25.5t82 -69.5t38.5 -100.5t9 -117.5q0 -123 -5 -239.5t-5 -221.5q0 -78 5 -144.5t20 -125.5h-113l-35 121h-8q-31 -53 -90 -92t-160 -39q-111 0 -181.5 76.5t-70.5 211.5q0 88 30 147.5t84 96.5t129 52.5t167 15.5h41 q20 0 43 -2q6 63 6 112q0 117 -35 164t-127 47q-57 0 -124.5 -17.5t-112.5 -43.5zM555 467q-20 2 -40.5 3t-41.5 1q-49 0 -96 -8t-84 -28.5t-58.5 -55.5t-21.5 -88q0 -82 40 -127t103 -45q86 0 133.5 41t65.5 90v217zM397 1475h160v-43l-168 -263h-88z" />
<glyph unicode="&#xe2;" horiz-adv-x="819" d="M111 963q59 37 144 57t179 20q86 0 138.5 -25.5t82 -69.5t38.5 -100.5t9 -117.5q0 -123 -5 -239.5t-5 -221.5q0 -78 5 -144.5t20 -125.5h-113l-35 121h-8q-31 -53 -90 -92t-160 -39q-111 0 -181.5 76.5t-70.5 211.5q0 88 30 147.5t84 96.5t129 52.5t167 15.5h41 q20 0 43 -2q6 63 6 112q0 117 -35 164t-127 47q-57 0 -124.5 -17.5t-112.5 -43.5zM555 467q-20 2 -40.5 3t-41.5 1q-49 0 -96 -8t-84 -28.5t-58.5 -55.5t-21.5 -88q0 -82 40 -127t103 -45q86 0 133.5 41t65.5 90v217zM389 1499h71l183 -373h-129l-66 136l-33 118l-35 -118 l-73 -136h-121z" />
<glyph unicode="&#xe3;" horiz-adv-x="819" d="M111 963q59 37 144 57t179 20q86 0 138.5 -25.5t82 -69.5t38.5 -100.5t9 -117.5q0 -123 -5 -239.5t-5 -221.5q0 -78 5 -144.5t20 -125.5h-113l-35 121h-8q-31 -53 -90 -92t-160 -39q-111 0 -181.5 76.5t-70.5 211.5q0 88 30 147.5t84 96.5t129 52.5t167 15.5h41 q20 0 43 -2q6 63 6 112q0 117 -35 164t-127 47q-57 0 -124.5 -17.5t-112.5 -43.5zM555 467q-20 2 -40.5 3t-41.5 1q-49 0 -96 -8t-84 -28.5t-58.5 -55.5t-21.5 -88q0 -82 40 -127t103 -45q86 0 133.5 41t65.5 90v217zM164 1337q55 70 98 95.5t78 25.5q29 0 53.5 -12 t47.5 -26l45 -25q22 -12 47 -13q18 0 37.5 9.5t41.5 33.5l47 -77q-49 -59 -86.5 -82t-70.5 -23q-29 0 -53.5 11.5t-48 25.5t-46 25.5t-47.5 11.5q-23 0 -45 -11.5t-49 -39.5z" />
<glyph unicode="&#xe4;" horiz-adv-x="819" d="M111 963q59 37 144 57t179 20q86 0 138.5 -25.5t82 -69.5t38.5 -100.5t9 -117.5q0 -123 -5 -239.5t-5 -221.5q0 -78 5 -144.5t20 -125.5h-113l-35 121h-8q-31 -53 -90 -92t-160 -39q-111 0 -181.5 76.5t-70.5 211.5q0 88 30 147.5t84 96.5t129 52.5t167 15.5h41 q20 0 43 -2q6 63 6 112q0 117 -35 164t-127 47q-57 0 -124.5 -17.5t-112.5 -43.5zM555 467q-20 2 -40.5 3t-41.5 1q-49 0 -96 -8t-84 -28.5t-58.5 -55.5t-21.5 -88q0 -82 40 -127t103 -45q86 0 133.5 41t65.5 90v217zM160 1337q0 47 23.5 74t64.5 27t64.5 -27t23.5 -74 q0 -43 -23.5 -69.5t-64.5 -26.5t-64.5 26.5t-23.5 69.5zM486 1337q0 47 23.5 74t64.5 27t64.5 -27t23.5 -74q0 -43 -23.5 -69.5t-64.5 -26.5t-64.5 26.5t-23.5 69.5z" />
<glyph unicode="&#xe5;" horiz-adv-x="819" d="M111 963q59 37 144 57t179 20q86 0 138.5 -25.5t82 -69.5t38.5 -100.5t9 -117.5q0 -123 -5 -239.5t-5 -221.5q0 -78 5 -144.5t20 -125.5h-113l-35 121h-8q-31 -53 -90 -92t-160 -39q-111 0 -181.5 76.5t-70.5 211.5q0 88 30 147.5t84 96.5t129 52.5t167 15.5h41 q20 0 43 -2q6 63 6 112q0 117 -35 164t-127 47q-57 0 -124.5 -17.5t-112.5 -43.5zM555 467q-20 2 -40.5 3t-41.5 1q-49 0 -96 -8t-84 -28.5t-58.5 -55.5t-21.5 -88q0 -82 40 -127t103 -45q86 0 133.5 41t65.5 90v217zM242 1317q0 86 45 134t123 48q74 0 122 -43t48 -139 q0 -82 -46 -131t-124 -49t-123 46t-45 134zM340 1317q0 -47 20.5 -70.5t49.5 -23.5q33 0 52 22.5t19 71.5t-21.5 72.5t-49.5 23.5q-29 0 -49.5 -22.5t-20.5 -73.5z" />
<glyph unicode="&#xe6;" horiz-adv-x="1314" d="M354 117q43 0 77 13t58.5 34.5t41 47.5t24.5 52v207q-20 2 -40.5 3t-41.5 1q-49 0 -96 -8t-84 -28.5t-58.5 -55.5t-21.5 -88q0 -72 39 -125t102 -53zM602 150q-41 -72 -111.5 -119t-175.5 -47q-115 0 -185.5 79.5t-70.5 215.5q0 90 30 150t83 96t127 51.5t164 15.5 q23 0 45 -1t45 -3q6 63 6 112q0 117 -35 163t-127 46q-57 0 -126.5 -20.5t-116.5 -52.5l-45 114q63 47 148 68.5t177 21.5q172 0 223 -131q41 74 114 107t144 33q57 0 113.5 -15.5t102 -59.5t73 -123t27.5 -204q0 -35 -3 -73.5t-7 -81.5h-519q2 -188 57.5 -285.5 t194.5 -97.5q57 0 112.5 20.5t84.5 44.5l53 -108q-51 -41 -124.5 -66t-164.5 -25q-102 0 -182 44t-119 131h-12zM915 915q-92 0 -147 -73.5t-66 -229.5h385q4 154 -42 228.5t-130 74.5z" />
<glyph unicode="&#xe7;" horiz-adv-x="729" d="M686 51q-41 -31 -90 -48t-102 -23l-29 -68q133 -31 133 -154q0 -80 -58.5 -132t-156.5 -52q-41 0 -76 8l15 80q47 -4 74.5 2t42 18.5t18.5 28t4 29.5q0 57 -142 76l72 161q-86 8 -146.5 50.5t-97 111t-54 163.5t-17.5 210q0 262 93 399.5t267 137.5q80 0 137.5 -14.5 t98.5 -37.5l-41 -127q-78 45 -178 45q-111 0 -167.5 -97t-56.5 -306q0 -84 12.5 -156.5t41 -127t73.5 -85t113 -30.5q53 0 99 17t75 42z" />
<glyph unicode="&#xe8;" horiz-adv-x="845" d="M733 70q-49 -45 -125 -70t-159 -25q-96 0 -167 38t-117 109t-67.5 169t-21.5 221q0 262 96 399.5t272 137.5q57 0 113.5 -14.5t102 -57.5t73 -121t27.5 -203q0 -35 -3 -74.5t-7 -82.5h-521q0 -88 14.5 -160t45 -122t79 -77.5t119.5 -27.5q55 0 109.5 20.5t83.5 48.5z M618 618q0 12 1 25q0 135 -44 201q-47 72 -129 71q-94 0 -149 -71.5t-66 -225.5h387zM534 1169h-84l-192 263v43h170z" />
<glyph unicode="&#xe9;" horiz-adv-x="845" d="M733 70q-49 -45 -125 -70t-159 -25q-96 0 -167 38t-117 109t-67.5 169t-21.5 221q0 262 96 399.5t272 137.5q57 0 113.5 -14.5t102 -57.5t73 -121t27.5 -203q0 -35 -3 -74.5t-7 -82.5h-521q0 -88 14.5 -160t45 -122t79 -77.5t119.5 -27.5q55 0 109.5 20.5t83.5 48.5z M618 618q0 12 1 25q0 135 -44 201q-47 72 -129 71q-94 0 -149 -71.5t-66 -225.5h387zM475 1475h160v-43l-168 -263h-88z" />
<glyph unicode="&#xea;" horiz-adv-x="845" d="M733 70q-49 -45 -125 -70t-159 -25q-96 0 -167 38t-117 109t-67.5 169t-21.5 221q0 262 96 399.5t272 137.5q57 0 113.5 -14.5t102 -57.5t73 -121t27.5 -203q0 -35 -3 -74.5t-7 -82.5h-521q0 -88 14.5 -160t45 -122t79 -77.5t119.5 -27.5q55 0 109.5 20.5t83.5 48.5z M618 618q0 12 1 25q0 135 -44 201q-47 72 -129 71q-94 0 -149 -71.5t-66 -225.5h387zM404 1499h71l183 -373h-129l-66 136l-33 118l-35 -118l-73 -136h-121z" />
<glyph unicode="&#xeb;" horiz-adv-x="845" d="M733 70q-49 -45 -125 -70t-159 -25q-96 0 -167 38t-117 109t-67.5 169t-21.5 221q0 262 96 399.5t272 137.5q57 0 113.5 -14.5t102 -57.5t73 -121t27.5 -203q0 -35 -3 -74.5t-7 -82.5h-521q0 -88 14.5 -160t45 -122t79 -77.5t119.5 -27.5q55 0 109.5 20.5t83.5 48.5z M618 618q0 12 1 25q0 135 -44 201q-47 72 -129 71q-94 0 -149 -71.5t-66 -225.5h387zM191 1337q0 47 23.5 74t64.5 27t64.5 -27t23.5 -74q0 -43 -23.5 -69.5t-64.5 -26.5t-64.5 26.5t-23.5 69.5zM517 1337q0 47 23.5 74t64.5 27t64.5 -27t23.5 -74q0 -43 -23.5 -69.5 t-64.5 -26.5t-64.5 26.5t-23.5 69.5z" />
<glyph unicode="&#xec;" horiz-adv-x="444" d="M147 1024h148v-1024h-148v1024zM286 1169h-84l-192 263v43h170z" />
<glyph unicode="&#xed;" horiz-adv-x="444" d="M147 1024h148v-1024h-148v1024zM252 1475h160v-43l-168 -263h-88z" />
<glyph unicode="&#xee;" horiz-adv-x="444" d="M147 1024h148v-1024h-148v1024zM193 1499h71l183 -373h-129l-66 136l-33 118l-35 -118l-73 -136h-121z" />
<glyph unicode="&#xef;" horiz-adv-x="444" d="M147 1024h148v-1024h-148v1024zM-31 1337q0 47 23.5 74t64.5 27t64.5 -27t23.5 -74q0 -43 -23.5 -69.5t-64.5 -26.5t-64.5 26.5t-23.5 69.5zM295 1337q0 47 23.5 74t64.5 27t64.5 -27t23.5 -74q0 -43 -23.5 -69.5t-64.5 -26.5t-64.5 26.5t-23.5 69.5z" />
<glyph unicode="&#xf0;" d="M346 1206l117 78q-66 53 -137 84l65 90l78 -41q45 -25 94 -67l123 82l49 -80l-102 -68q41 -47 78 -110.5t65.5 -146.5t45 -187.5t16.5 -233.5q0 -176 -30 -296t-81 -194.5t-119.5 -107.5t-148.5 -33q-98 0 -170 39t-117 110t-66.5 170t-21.5 220q0 117 24.5 214t72.5 168 t117 109.5t157 38.5q72 0 127 -24.5t84 -61.5q-23 78 -57 142.5t-77 116.5l-135 -89zM236 514q0 -215 65.5 -309t167.5 -94q47 0 88 26.5t70.5 84t47 149.5t17.5 223q0 20 -1 50t-3 59.5t-5 56.5l-5 43q-29 53 -88.5 79.5t-118.5 26.5q-61 0 -105 -28.5t-74 -80.5t-43 -125 t-13 -161z" />
<glyph unicode="&#xf1;" horiz-adv-x="899" d="M645 0v625q0 154 -36 222t-128 68q-82 0 -135 -49t-78 -121v-745h-147v1024h106l27 -109h6q39 55 105.5 94.5t158.5 39.5q66 0 116 -18.5t84 -62.5t51.5 -118t17.5 -186v-664h-148zM205 1337q55 70 98 95.5t78 25.5q29 0 53.5 -12t47.5 -26l45 -25q22 -12 47 -13 q18 0 37.5 9.5t41.5 33.5l47 -77q-49 -59 -86.5 -82t-70.5 -23q-29 0 -53.5 11.5t-48 25.5t-46 25.5t-47.5 11.5q-23 0 -45 -11.5t-49 -39.5z" />
<glyph unicode="&#xf2;" horiz-adv-x="884" d="M76 512q0 276 95 406.5t271 130.5q188 0 277.5 -133.5t89.5 -403.5q0 -279 -96.5 -408t-270.5 -129q-188 0 -277 133.5t-89 403.5zM229 512q0 -90 11.5 -164t37 -127t66.5 -82.5t98 -29.5q106 0 159.5 95t53.5 308q0 88 -11 163t-36.5 128t-66.5 82.5t-99 29.5 q-104 0 -158.5 -96t-54.5 -307zM520 1169h-84l-192 263v43h170z" />
<glyph unicode="&#xf3;" horiz-adv-x="884" d="M76 512q0 276 95 406.5t271 130.5q188 0 277.5 -133.5t89.5 -403.5q0 -279 -96.5 -408t-270.5 -129q-188 0 -277 133.5t-89 403.5zM229 512q0 -90 11.5 -164t37 -127t66.5 -82.5t98 -29.5q106 0 159.5 95t53.5 308q0 88 -11 163t-36.5 128t-66.5 82.5t-99 29.5 q-104 0 -158.5 -96t-54.5 -307zM465 1475h160v-43l-168 -263h-88z" />
<glyph unicode="&#xf4;" horiz-adv-x="884" d="M76 512q0 276 95 406.5t271 130.5q188 0 277.5 -133.5t89.5 -403.5q0 -279 -96.5 -408t-270.5 -129q-188 0 -277 133.5t-89 403.5zM229 512q0 -90 11.5 -164t37 -127t66.5 -82.5t98 -29.5q106 0 159.5 95t53.5 308q0 88 -11 163t-36.5 128t-66.5 82.5t-99 29.5 q-104 0 -158.5 -96t-54.5 -307zM422 1499h71l183 -373h-129l-66 136l-33 118l-35 -118l-73 -136h-121z" />
<glyph unicode="&#xf5;" horiz-adv-x="884" d="M76 512q0 276 95 406.5t271 130.5q188 0 277.5 -133.5t89.5 -403.5q0 -279 -96.5 -408t-270.5 -129q-188 0 -277 133.5t-89 403.5zM229 512q0 -90 11.5 -164t37 -127t66.5 -82.5t98 -29.5q106 0 159.5 95t53.5 308q0 88 -11 163t-36.5 128t-66.5 82.5t-99 29.5 q-104 0 -158.5 -96t-54.5 -307zM197 1337q55 70 98 95.5t78 25.5q29 0 53.5 -12t47.5 -26l45 -25q22 -12 47 -13q18 0 37.5 9.5t41.5 33.5l47 -77q-49 -59 -86.5 -82t-70.5 -23q-29 0 -53.5 11.5t-48 25.5t-46 25.5t-47.5 11.5q-23 0 -45 -11.5t-49 -39.5z" />
<glyph unicode="&#xf6;" horiz-adv-x="884" d="M76 512q0 276 95 406.5t271 130.5q188 0 277.5 -133.5t89.5 -403.5q0 -279 -96.5 -408t-270.5 -129q-188 0 -277 133.5t-89 403.5zM229 512q0 -90 11.5 -164t37 -127t66.5 -82.5t98 -29.5q106 0 159.5 95t53.5 308q0 88 -11 163t-36.5 128t-66.5 82.5t-99 29.5 q-104 0 -158.5 -96t-54.5 -307zM189 1337q0 47 23.5 74t64.5 27t64.5 -27t23.5 -74q0 -43 -23.5 -69.5t-64.5 -26.5t-64.5 26.5t-23.5 69.5zM515 1337q0 47 23.5 74t64.5 27t64.5 -27t23.5 -74q0 -43 -23.5 -69.5t-64.5 -26.5t-64.5 26.5t-23.5 69.5z" />
<glyph unicode="&#xf7;" horiz-adv-x="849" d="M72 764h704v-137h-704v137zM326 1044q0 57 27.5 86t74.5 29t74.5 -28.5t27.5 -86.5q0 -59 -27.5 -87.5t-74.5 -28.5t-74.5 28.5t-27.5 87.5zM326 348q0 57 27.5 86t74.5 29t74.5 -28.5t27.5 -86.5q0 -59 -27.5 -88t-74.5 -29t-74.5 29t-27.5 88z" />
<glyph unicode="&#xf8;" horiz-adv-x="892" d="M82 512q0 268 95 402.5t272 134.5q119 0 200 -60l39 66l100 -62l-55 -98q41 -68 61.5 -164t20.5 -219q0 -272 -95 -404.5t-271 -132.5q-127 0 -211 66l-43 -70l-101 66l62 104q-74 135 -74 371zM662 512q0 66 -5.5 124t-19.5 105l-328 -563q53 -70 140 -69 q106 0 159.5 96t53.5 307zM236 512q0 -61 4 -116.5t16 -102.5l322 563q-25 29 -57 44t-72 15q-104 0 -158.5 -96t-54.5 -307z" />
<glyph unicode="&#xf9;" horiz-adv-x="888" d="M254 1024v-627q0 -156 31.5 -222t115.5 -66q43 0 77 17t60.5 46t47 65.5t32.5 75.5v711h148v-733q0 -74 5 -153t15 -138h-104l-37 143h-6q-35 -68 -100.5 -118t-163.5 -50q-66 0 -115 16.5t-84 59.5t-52.5 118t-17.5 191v664h148zM510 1169h-84l-192 263v43h170z" />
<glyph unicode="&#xfa;" horiz-adv-x="888" d="M254 1024v-627q0 -156 31.5 -222t115.5 -66q43 0 77 17t60.5 46t47 65.5t32.5 75.5v711h148v-733q0 -74 5 -153t15 -138h-104l-37 143h-6q-35 -68 -100.5 -118t-163.5 -50q-66 0 -115 16.5t-84 59.5t-52.5 118t-17.5 191v664h148zM463 1475h160v-43l-168 -263h-88z" />
<glyph unicode="&#xfb;" horiz-adv-x="888" d="M254 1024v-627q0 -156 31.5 -222t115.5 -66q43 0 77 17t60.5 46t47 65.5t32.5 75.5v711h148v-733q0 -74 5 -153t15 -138h-104l-37 143h-6q-35 -68 -100.5 -118t-163.5 -50q-66 0 -115 16.5t-84 59.5t-52.5 118t-17.5 191v664h148zM416 1499h71l183 -373h-129l-66 136 l-33 118l-35 -118l-73 -136h-121z" />
<glyph unicode="&#xfc;" horiz-adv-x="888" d="M254 1024v-627q0 -156 31.5 -222t115.5 -66q43 0 77 17t60.5 46t47 65.5t32.5 75.5v711h148v-733q0 -74 5 -153t15 -138h-104l-37 143h-6q-35 -68 -100.5 -118t-163.5 -50q-66 0 -115 16.5t-84 59.5t-52.5 118t-17.5 191v664h148zM186 1337q0 47 23.5 74t64.5 27 t64.5 -27t23.5 -74q0 -43 -23.5 -69.5t-64.5 -26.5t-64.5 26.5t-23.5 69.5zM512 1337q0 47 23.5 74t64.5 27t64.5 -27t23.5 -74q0 -43 -23.5 -69.5t-64.5 -26.5t-64.5 26.5t-23.5 69.5z" />
<glyph unicode="&#xfd;" horiz-adv-x="770" d="M375 362l43 -198h10l31 198l155 662h150l-244 -920q-29 -111 -57.5 -207t-62 -166.5t-75.5 -110.5t-100 -40q-57 0 -100 19l25 139q29 -10 57.5 -4t54 34.5t47 85t37.5 146.5l-332 1024h168zM448 1475h160v-43l-168 -263h-88z" />
<glyph unicode="&#xfe;" horiz-adv-x="890" d="M121 1434h147v-492h6q33 49 87.5 78t132.5 29q162 0 241.5 -121t79.5 -396q0 -129 -26.5 -232t-75.5 -175t-119 -111t-156 -39q-59 0 -97 8.5t-73 26.5v-420h-147v1844zM459 915q-72 0 -121 -46t-70 -128v-581q29 -25 65 -38t95 -13q109 0 171.5 110.5t62.5 315.5 q0 86 -11.5 155.5t-35 119.5t-62.5 77.5t-94 27.5z" />
<glyph unicode="&#xff;" horiz-adv-x="770" d="M375 362l43 -198h10l31 198l155 662h150l-244 -920q-29 -111 -57.5 -207t-62 -166.5t-75.5 -110.5t-100 -40q-57 0 -100 19l25 139q29 -10 57.5 -4t54 34.5t47 85t37.5 146.5l-332 1024h168zM135 1337q0 47 23.5 74t64.5 27t64.5 -27t23.5 -74q0 -43 -23.5 -69.5 t-64.5 -26.5t-64.5 26.5t-23.5 69.5zM461 1337q0 47 23.5 74t64.5 27t64.5 -27t23.5 -74q0 -43 -23.5 -69.5t-64.5 -26.5t-64.5 26.5t-23.5 69.5z" />
<glyph unicode="&#x131;" horiz-adv-x="444" d="M147 1024h148v-1024h-148v1024z" />
<glyph unicode="&#x152;" horiz-adv-x="1531" d="M784 1276q-45 23 -102 32t-119 9q-150 0 -231.5 -147.5t-81.5 -452.5q0 -121 17.5 -229.5t56 -190.5t100 -131t149.5 -49q47 0 96.5 4t114.5 29v1126zM784 0q-41 -10 -98 -17.5t-127 -7.5q-123 0 -212 52.5t-146.5 149.5t-85 233.5t-27.5 306.5q0 362 120 551.5 t351 189.5q74 0 124 -7t101 -17h637v-142h-483v-485h442v-141h-442v-525h494v-141h-648z" />
<glyph unicode="&#x153;" horiz-adv-x="1417" d="M229 512q0 -80 11.5 -152.5t37 -128t66.5 -89t98 -33.5q211 0 211 403q0 80 -11 152.5t-35.5 129t-65.5 89t-99 32.5q-213 0 -213 -403zM727 154q-88 -178 -287 -179q-186 0 -275 139.5t-89 397.5q0 262 95 399.5t271 137.5q104 0 175 -46.5t112 -130.5 q41 78 113.5 127.5t173.5 49.5q57 0 113.5 -15.5t101.5 -58.5t72.5 -121t27.5 -203q0 -35 -3 -73.5t-7 -81.5h-524q2 -178 62.5 -284t199.5 -106q55 0 112.5 23t85.5 51l54 -108q-49 -47 -128 -72t-165 -25q-102 0 -176 49.5t-115 129.5zM1016 918q-92 0 -148.5 -74 t-66.5 -228h389q4 154 -43 228t-131 74z" />
<glyph unicode="&#x178;" horiz-adv-x="931" d="M391 569l-381 865h180l259 -625l26 -125h4l27 129l250 621h166l-377 -863v-571h-154v569zM215 1626q0 43 25.5 69.5t70.5 26.5q43 0 68.5 -26.5t25.5 -69.5t-25.5 -68.5t-68.5 -25.5q-45 0 -70.5 25.5t-25.5 68.5zM538 1626q0 43 26 69.5t69 26.5q45 0 70.5 -26.5 t25.5 -69.5t-25.5 -68.5t-70.5 -25.5q-43 0 -69 25.5t-26 68.5z" />
<glyph unicode="&#x2c6;" horiz-adv-x="702" d="M326 1499h71l183 -373h-129l-66 136l-33 118l-35 -118l-73 -136h-121z" />
<glyph unicode="&#x2da;" horiz-adv-x="583" d="M123 1317q0 86 45 134t123 48q74 0 122 -43t48 -139q0 -82 -46 -131t-124 -49t-123 46t-45 134zM221 1317q0 -47 20.5 -70.5t49.5 -23.5q33 0 52 22.5t19 71.5t-21.5 72.5t-49.5 23.5q-29 0 -49.5 -22.5t-20.5 -73.5z" />
<glyph unicode="&#x2dc;" horiz-adv-x="741" d="M123 1337q55 70 98 95.5t78 25.5q29 0 53.5 -12t47.5 -26l45 -25q22 -12 47 -13q18 0 37.5 9.5t41.5 33.5l47 -77q-49 -59 -86.5 -82t-70.5 -23q-29 0 -53.5 11.5t-48 25.5t-46 25.5t-47.5 11.5q-23 0 -45 -11.5t-49 -39.5z" />
<glyph unicode="&#x4d4;" horiz-adv-x="1398" d="M645 1206l-53 -200l-211 -461h270v661h-6zM651 408h-338l-184 -408h-166l686 1434h641v-142h-485v-485h444v-141h-444v-525h493v-141h-647v408z" />
<glyph unicode="&#x4d5;" horiz-adv-x="1314" d="M354 117q43 0 77 13t58.5 34.5t41 47.5t24.5 52v207q-20 2 -40.5 3t-41.5 1q-49 0 -96 -8t-84 -28.5t-58.5 -55.5t-21.5 -88q0 -72 39 -125t102 -53zM602 150q-41 -72 -111.5 -119t-175.5 -47q-115 0 -185.5 79.5t-70.5 215.5q0 90 30 150t83 96t127 51.5t164 15.5 q23 0 45 -1t45 -3q6 63 6 112q0 117 -35 163t-127 46q-57 0 -126.5 -20.5t-116.5 -52.5l-45 114q63 47 148 68.5t177 21.5q172 0 223 -131q41 74 114 107t144 33q57 0 113.5 -15.5t102 -59.5t73 -123t27.5 -204q0 -35 -3 -73.5t-7 -81.5h-519q2 -188 57.5 -285.5 t194.5 -97.5q57 0 112.5 20.5t84.5 44.5l53 -108q-51 -41 -124.5 -66t-164.5 -25q-102 0 -182 44t-119 131h-12zM915 915q-92 0 -147 -73.5t-66 -229.5h385q4 154 -42 228.5t-130 74.5z" />
<glyph unicode="&#x2000;" horiz-adv-x="890" />
<glyph unicode="&#x2001;" horiz-adv-x="1781" />
<glyph unicode="&#x2002;" horiz-adv-x="890" />
<glyph unicode="&#x2003;" horiz-adv-x="1781" />
<glyph unicode="&#x2004;" horiz-adv-x="593" />
<glyph unicode="&#x2005;" horiz-adv-x="444" />
<glyph unicode="&#x2006;" horiz-adv-x="296" />
<glyph unicode="&#x2007;" horiz-adv-x="296" />
<glyph unicode="&#x2008;" horiz-adv-x="221" />
<glyph unicode="&#x2009;" horiz-adv-x="356" />
<glyph unicode="&#x200a;" horiz-adv-x="98" />
<glyph unicode="&#x2010;" horiz-adv-x="595" d="M96 655h404v-141h-404v141z" />
<glyph unicode="&#x2011;" horiz-adv-x="595" d="M96 655h404v-141h-404v141z" />
<glyph unicode="&#x2012;" horiz-adv-x="595" d="M96 655h404v-141h-404v141z" />
<glyph unicode="&#x2013;" horiz-adv-x="1085" d="M190 659h705v-141h-705v141z" />
<glyph unicode="&#x2014;" horiz-adv-x="1355" d="M195 659h966v-141h-966v141z" />
<glyph unicode="&#x2018;" horiz-adv-x="331" d="M266 1270q0 -47 -25.5 -75t-66.5 -28q-47 0 -79 35t-32 107q0 68 17.5 117t42 83.5t50.5 55t44 30.5l47 -67q-35 -25 -60.5 -66t-23.5 -96q39 6 62.5 -21.5t23.5 -74.5z" />
<glyph unicode="&#x2019;" horiz-adv-x="331" d="M63 1350q0 47 27 73.5t68 26.5q49 0 79.5 -34t30.5 -103q0 -66 -16 -115t-40 -83t-50.5 -55.5t-44.5 -31.5l-47 62q35 23 60.5 64.5t23.5 96.5q-37 -6 -64 21t-27 78z" />
<glyph unicode="&#x201a;" horiz-adv-x="331" d="M63 103q0 47 27 73.5t68 26.5q49 0 79.5 -34t30.5 -103q0 -66 -16 -115t-40 -83t-50.5 -55.5t-44.5 -31.5l-47 62q35 23 60.5 64.5t23.5 96.5q-37 -6 -64 21t-27 78z" />
<glyph unicode="&#x201c;" horiz-adv-x="589" d="M524 1270q0 -47 -25.5 -75t-66.5 -28q-47 0 -79 35t-32 107q0 68 17.5 117t42 83.5t50.5 55t44 30.5l47 -67q-35 -25 -60.5 -66t-23.5 -96q39 6 62.5 -21.5t23.5 -74.5zM266 1270q0 -47 -25.5 -75t-66.5 -28q-47 0 -79 35t-32 107q0 68 17.5 117t42 83.5t50.5 55t44 30.5 l47 -67q-35 -25 -60.5 -66t-23.5 -96q39 6 62.5 -21.5t23.5 -74.5z" />
<glyph unicode="&#x201d;" horiz-adv-x="589" d="M321 1350q0 47 27 73.5t68 26.5q49 0 79.5 -34t30.5 -103q0 -66 -16 -115t-40 -83t-50.5 -55.5t-44.5 -31.5l-47 62q35 23 60.5 64.5t23.5 96.5q-37 -6 -64 21t-27 78zM63 1350q0 47 27 73.5t68 26.5q49 0 79.5 -34t30.5 -103q0 -66 -16 -115t-40 -83t-50.5 -55.5 t-44.5 -31.5l-47 62q35 23 60.5 64.5t23.5 96.5q-37 -6 -64 21t-27 78z" />
<glyph unicode="&#x201e;" horiz-adv-x="589" d="M321 103q0 47 27 73.5t68 26.5q49 0 79.5 -34t30.5 -103q0 -66 -16 -115t-40 -83t-50.5 -55.5t-44.5 -31.5l-47 62q35 23 60.5 64.5t23.5 96.5q-37 -6 -64 21t-27 78zM63 103q0 47 27 73.5t68 26.5q49 0 79.5 -34t30.5 -103q0 -66 -16 -115t-40 -83t-50.5 -55.5 t-44.5 -31.5l-47 62q35 23 60.5 64.5t23.5 96.5q-37 -6 -64 21t-27 78z" />
<glyph unicode="&#x2022;" horiz-adv-x="743" d="M139 637q0 129 64.5 207t169.5 78q102 0 167.5 -75t65.5 -210t-65.5 -210t-167.5 -75q-104 0 -169 75t-65 210z" />
<glyph unicode="&#x2026;" horiz-adv-x="1345" d="M1041 92q0 57 27.5 86t74.5 29t75 -28.5t28 -86.5q0 -59 -28 -88t-75 -29t-74.5 29t-27.5 88zM582 92q0 57 27.5 86t74.5 29t75 -28.5t28 -86.5q0 -59 -28 -88t-75 -29t-74.5 29t-27.5 88zM125 92q0 57 27.5 86t74.5 29t75 -28.5t28 -86.5q0 -59 -28 -88t-75 -29 t-74.5 29t-27.5 88z" />
<glyph unicode="&#x202f;" horiz-adv-x="356" />
<glyph unicode="&#x2039;" horiz-adv-x="493" d="M59 530l265 471l102 -67l-168 -318l-78 -84l78 -73l178 -312l-102 -69z" />
<glyph unicode="&#x203a;" horiz-adv-x="495" d="M434 549l-262 -471l-102 67l166 318l79 84l-79 74l-179 309l105 71z" />
<glyph unicode="&#x2044;" horiz-adv-x="305" d="M498 1460l100 -55l-786 -1430l-103 58z" />
<glyph unicode="&#x205f;" horiz-adv-x="444" />
<glyph unicode="&#x2081;" horiz-adv-x="675" d="M131 -88h172v526l12 74l-47 -57l-121 -82l-55 86l256 211h84v-758h154v-117h-455v117z" />
<glyph unicode="&#x2082;" horiz-adv-x="675" d="M547 440q0 -66 -17.5 -128t-47 -122.5t-69.5 -118.5l-83 -116l-76 -66v-4l94 31h230v-121h-488v66q43 43 99.5 109.5t107.5 142t86 155.5t35 152q0 61 -32 94t-79 33q-45 0 -87 -14.5t-70 -34.5l-41 106q41 33 101 49.5t120 16.5q104 0 160.5 -59.5t56.5 -170.5z" />
<glyph unicode="&#x2083;" horiz-adv-x="675" d="M289 -102q78 0 117.5 42t37.5 117q2 66 -33.5 107t-119.5 41h-90v47l157 244l60 55l-84 -12h-215v116h432v-65l-168 -258l-43 -35v-6l41 6q92 0 144.5 -64.5t49.5 -175.5q2 -125 -74.5 -200.5t-199.5 -75.5q-59 0 -104 10t-80 27l26 114q31 -16 67 -25t79 -9z" />
<glyph unicode="&#x2084;" horiz-adv-x="675" d="M645 -8h-133v-197h-125v197h-338v69l371 615h92v-570h133v-114zM387 362l14 109h-8l-37 -102l-120 -209l-56 -62l84 8h123v256z" />
<glyph unicode="&#x20ac;" d="M57 928h103q20 150 63 248t104.5 160.5t136.5 92t159 29.5t144 -11t107 -34l-40 -135q-39 18 -88.5 28.5t-118.5 10.5q-55 0 -104.5 -20.5t-90.5 -64.5t-71.5 -116t-47.5 -188h457l-31 -129h-438q-2 -16 -2 -41v-41v-33q0 -12 2 -31h406l-31 -127h-365q29 -215 115 -312 t221 -97q129 0 209 57l35 -123q-49 -41 -123 -58.5t-150 -17.5q-188 0 -309 129t-153 422h-131l32 127h88v64v41q0 25 2 41h-122z" />
<glyph unicode="&#x2122;" horiz-adv-x="1497" d="M653 1300h-217v-604h-147v604h-217v134h581v-134zM1288 1038l21 211h-9l-63 -174l-137 -287h-70l-139 285l-60 176h-8l27 -209v-344h-133v738h145l168 -342l45 -119l49 123l154 338h147v-738h-137v342z" />
<glyph unicode="&#x2212;" horiz-adv-x="849" d="M72 764h704v-137h-704v137z" />
<glyph unicode="&#xe000;" horiz-adv-x="1025" d="M0 1025h1025v-1025h-1025v1025z" />
<glyph unicode="&#xf408;" horiz-adv-x="776" d="M342 1782h102l209 -209v-43h-135l-96 100l-31 72l-31 -70l-106 -102h-131v45z" />
<glyph unicode="&#xf40d;" horiz-adv-x="808" d="M123 1597q57 70 105 95.5t91 25.5q33 0 63 -10t57 -21l54 -22q26 -10 52 -10q23 0 44 8t44 33l53 -76q-49 -57 -92 -77.5t-80 -20.5q-31 0 -59.5 10t-56.5 21l-54 22q-27 10 -55 10q-29 0 -56.5 -12t-60.5 -47z" />
<glyph unicode="&#xf662;" horiz-adv-x="675" d="M305 1219l12 73l-45 -59l-120 -84l-54 90l254 209h84v-875h-131v646z" />
<glyph unicode="&#xf6c9;" horiz-adv-x="638" d="M313 1782h203v-43l-268 -199h-125z" />
<glyph unicode="&#xf6cb;" horiz-adv-x="759" d="M123 1626q0 43 25.5 69.5t70.5 26.5q43 0 68.5 -26.5t25.5 -69.5t-25.5 -68.5t-68.5 -25.5q-45 0 -70.5 25.5t-25.5 68.5zM446 1626q0 43 26 69.5t69 26.5q45 0 70.5 -26.5t25.5 -69.5t-25.5 -68.5t-70.5 -25.5q-43 0 -69 25.5t-26 68.5z" />
<glyph unicode="&#xf6ce;" horiz-adv-x="638" d="M516 1540h-133l-260 199v43h203z" />
<glyph unicode="&#xfb01;" horiz-adv-x="894" d="M770 1024v-1024h-147v891h-318v-891h-147v891h-125v133h125v57q0 193 77.5 280t227.5 87q100 0 175 -19.5t122 -44.5l-47 -122q-49 29 -109.5 41t-126.5 12q-57 0 -91 -19.5t-52.5 -57.5t-23.5 -92t-5 -122h465z" />
<glyph unicode="&#xfb02;" horiz-adv-x="960" d="M614 1309q-23 4 -66.5 10t-86.5 6q-53 0 -84 -20.5t-47.5 -58.5t-20.5 -94t-4 -128h162v-133h-162v-891h-147v891h-125v133h125v57q0 193 68.5 285t230.5 92q33 0 77 -3t87 -8t80.5 -11t60.5 -15v-1188q0 -68 19.5 -96t54.5 -28q45 0 102 22l10 -119q-27 -16 -73 -26.5 t-89 -10.5q-78 0 -125 49.5t-47 168.5v1116z" />
<glyph unicode="&#xfb03;" horiz-adv-x="1497" d="M1198 1024h148v-1024h-148v1024zM1172 1335q0 49 27.5 80t72.5 31t75 -30t30 -81q0 -49 -30 -76.5t-75 -27.5t-72.5 28.5t-27.5 75.5zM559 1024h125v57q0 193 55 279t188 86q53 0 96.5 -6t88.5 -27l-37 -127q-37 16 -68.5 21.5t-60.5 5.5q-41 0 -63.5 -16.5t-34 -51.5 t-14.5 -89t-3 -132h213v-133h-213v-891h-147v891h-125v133zM33 1024h125v57q0 193 55 279t188 86q53 0 96.5 -6t88.5 -27l-37 -127q-37 16 -68.5 21.5t-60.5 5.5q-41 0 -63.5 -16.5t-34 -51.5t-14.5 -89t-3 -132h213v-133h-213v-891h-147v891h-125v133z" />
<glyph unicode="&#xfb04;" horiz-adv-x="1529" d="M1332 244q0 -72 19 -102.5t54 -30.5q43 0 101 22l14 -119q-27 -16 -75 -26.5t-87 -10.5q-78 0 -126 48.5t-48 169.5v1239h148v-1190zM559 1024h125v57q0 193 55 279t188 86q53 0 96.5 -6t88.5 -27l-37 -127q-37 16 -68.5 21.5t-60.5 5.5q-41 0 -63.5 -16.5t-34 -51.5 t-14.5 -89t-3 -132h213v-133h-213v-891h-147v891h-125v133zM33 1024h125v57q0 193 55 279t188 86q53 0 96.5 -6t88.5 -27l-37 -127q-37 16 -68.5 21.5t-60.5 5.5q-41 0 -63.5 -16.5t-34 -51.5t-14.5 -89t-3 -132h213v-133h-213v-891h-147v891h-125v133z" />
<glyph horiz-adv-x="303" d="M539 1460l96 -61l-873 -1424l-96 62z" />
</font>
</defs>
</svg>
